Скачать Первый мститель: Противостояние / Captain America: Civil War (2016) BDRip 1080p от qqss44 | iTunes бесплатно без регистрации






✦ Перевод: дублированный -✦ Аудио Rus: AC3 | 48 KHz | 5.1 (Front: L С R Side: L R) + LFE | ~384 kbps
qqss44 Оценка10 из 10 (3 голосов, самая низкая оценка - 10, самая высокая - 10) КатегорияЗарубежные фильмы Раздают40 Качают1 Сидер замечен10-07-2019 11:19:12 (11 минуту назад) Добавлен20-09-2016 20:43:32 (34 месяца назад) Размер7.43 GB (7978765339 Bytes)✦ Продолжительность: 02:27:41
✦ Субтитры: | Русские (Forced, Full) | английские (Full) |

✘ MediaInfo ✘
x264 [info]: frame I:1747 Avg QP:14.76 size:175315
x264 [info]: frame P:62256 Avg QP:18.22 size: 56406
x264 [info]: frame B:148471 Avg QP:18.99 size: 20367

Общее
Уникальный идентификатор : 232920987614159991916568916091107721218 (0xAF3AF352260108C0936810379BAAC002)
Полное имя : X:ATorrentCaptain.America.Civil.War.(2016).BDRip.1080p.(qqss44).mkv
Формат : Matroska
Версия формата : Version 2
Размер файла : 7,43 Гбайт
Продолжительность : 2 ч. 27 м.
Общий поток : 7203 Кбит/сек
Название фильма : Captain.America.Civil.War.(2016).BDRip.1080p.(qqss44)
Дата кодирования : UTC 2016-09-20 15:56:02
Программа кодирования : mkvmerge v7.9.0 ('Birds') 64bit
Библиотека кодирования : libebml v1.3.1 + libmatroska v1.4.2

Видео
Идентификатор : 1
Формат : AVC
Формат/Информация : Advanced Video Codec
Профиль формата : High@L4.1
Параметр CABAC формата : Да
Параметр ReFrames формата : 5 кадров
Идентификатор кодека : V_MPEG4/ISO/AVC
Продолжительность : 2 ч. 27 м.
Битрейт : 6176 Кбит/сек
Ширина : 1920 пикселей
Высота : 804 пикселя
Соотношение сторон : 2,40:1
Режим частоты кадров : Постоянный
Частота кадров : 23,976 (24000/1001) кадра/сек
Цветовое пространство : YUV
Субдискретизация насыщенности : 4:2:0
Битовая глубина : 8 бит
Тип развёртки : Прогрессивная
Бит/(Пиксели*Кадры) : 0.167
Размер потока : 6,37 Гбайт (86%)
Заголовок : Captain.America.Civil.War.(2016).BDRip.1080p.(qqss44)
Библиотека кодирования : x264 core 146 r2538 121396c
Настройки программы : cabac=1 / ref=5 / deblock=1:-3:-3 / analyse=0x3:0x133 / me=umh / subme=11 / psy=1 / psy_rd=1.00:0.00 / mixed_ref=1 / me_range=32 / chroma_me=1 / trellis=2 / 8x8dct=1 / cqm=0 / deadzone=21,11 / fast_pskip=0 / chroma_qp_offset=-2 / threads=12 / lookahead_threads=2 / sliced_threads=0 / nr=0 / decimate=0 / interlaced=0 / bluray_compat=0 / constrained_intra=0 / bframes=8 / b_pyramid=2 / b_adapt=2 / b_bias=0 / direct=3 / weightb=1 / open_gop=0 / weightp=2 / keyint=240 / keyint_min=23 / scenecut=40 / intra_refresh=0 / rc=2pass / mbtree=0 / bitrate=6176 / ratetol=1.0 / qcomp=0.60 / qpmin=0 / qpmax=69 / qpstep=4 / cplxblur=20.0 / qblur=0.5 / ip_ratio=1.40 / pb_ratio=1.30 / aq=1:1.00
Язык : English
Default : Да
Forced : Нет

Аудио #1
Идентификатор : 2
Формат : AC-3
Формат/Информация : Audio Coding 3
Расширение режима : CM (complete main)
Параметр Endianness формата : Big
Идентификатор кодека : A_AC3
Продолжительность : 2 ч. 27 м.
Вид битрейта : Постоянный
Битрейт : 384 Кбит/сек
Каналы : 6 каналов
Расположение каналов : Front: L C R, Side: L R, LFE
Частота : 48,0 КГц
Частота кадров : 31,250 кадров/сек (1536 spf)
Метод сжатия : С потерями
Задержка видео : 800 мс.
Размер потока : 406 Мбайт (5%)
Заголовок : DUB | DD5.1 @ 384 kbps
Язык : Russian
Default : Да
Forced : Нет

Аудио #2
Идентификатор : 3
Формат : AC-3
Формат/Информация : Audio Coding 3
Расширение режима : CM (complete main)
Параметр Endianness формата : Big
Идентификатор кодека : A_AC3
Продолжительность : 2 ч. 27 м.
Вид битрейта : Постоянный
Битрейт : 640 Кбит/сек
Каналы : 6 каналов
Расположение каналов : Front: L C R, Side: L R, LFE
Частота : 48,0 КГц
Частота кадров : 31,250 кадров/сек (1536 spf)
Метод сжатия : С потерями
Размер потока : 676 Мбайт (9%)
Заголовок : Original | DD5.1 @ 640 kbps
Язык : English
Default : Нет
Forced : Нет

Текст #1
Идентификатор : 4
Формат : UTF-8
Идентификатор кодека : S_TEXT/UTF8
Идентификатор кодека/Информация : UTF-8 Plain Text
Продолжительность : 2 ч. 24 м.
Битрейт : 2 бит/сек
Count of elements : 57
Размер потока : 2,85 Кбайт (0%)
Заголовок : Forced
Язык : Russian
Default : Да
Forced : Нет

Текст #2
Идентификатор : 5
Формат : UTF-8
Идентификатор кодека : S_TEXT/UTF8
Идентификатор кодека/Информация : UTF-8 Plain Text
Продолжительность : 2 ч. 25 м.
Битрейт : 74 бит/сек
Count of elements : 1722
Размер потока : 80,1 Кбайт (0%)
Заголовок : Full
Язык : Russian
Default : Нет
Forced : Нет

Текст #3
Идентификатор : 6
Формат : UTF-8
Идентификатор кодека : S_TEXT/UTF8
Идентификатор кодека/Информация : UTF-8 Plain Text
Продолжительность : 2 ч. 25 м.
Битрейт : 50 бит/сек
Count of elements : 1865
Размер потока : 54,2 Кбайт (0%)
Заголовок : Full
Язык : English
Default : Нет
Forced : Нет

Меню
00:00:00.000 : en:Chapter 1
00:09:01.958 : en:Chapter 2
00:13:04.993 : en:Chapter 3
00:21:03.345 : en:Chapter 4
00:27:53.380 : en:Chapter 5
00:31:57.290 : en:Chapter 6
00:35:08.398 : en:Chapter 7
00:42:58.451 : en:Chapter 8
00:52:04.621 : en:Chapter 9
01:05:39.102 : en:Chapter 10
01:16:41.639 : en:Chapter 11
01:22:28.777 : en:Chapter 12
01:29:29.489 : en:Chapter 13
01:34:09.769 : en:Chapter 14
01:45:38.582 : en:Chapter 15
01:55:54.322 : en:Chapter 16
02:02:35.056 : en:Chapter 17
02:12:14.176 : en:Chapter 18
02:18:29.384 : en:Chapter 19

✘ Скриншоты ✘

Залил✦ Видео: X264/MPEG4-AVC | 1920x804 (2.40:1) | ~6176 kbps | 23.976 fps
✦ Год выхода: 2016
✦ Оригинальное название: Captain America: Civil War
✦ Аудио Eng: AC3 | 48 KHz | 5.1 (Front: L С R Side: L R) + LFE | ~640 kbps
═ Информация о фильме ═
✦ Название: Первый мститель: Противостояние
✦ Страна: США
✦ Качество: BDRip 1080p
Анонсы 1080p от qqss44
✦ Формат:| MKV | x264 |
Информация о файле
✦ Режиссер: Энтони Руссо, Джо Руссо
iTunes



✦ Жанр: Фантастика, боевик, приключения
═ Описание фильма ═
Мстители под руководством Капитана Америки оказываются участниками разрушительного инцидента, имеющего международный масштаб. Эти события заставляют правительство задуматься над тем, чтобы начать регулировать действия всех людей с особыми способностями, введя «Акт о регистрации супергероев», вынуждая их раскрыть свои личности и работать на правительственные службы.



✘ Первый мститель: Противостояние ✘

✦ В ролях: Крис Эванс, Роберт Дауни мл., Скарлетт Йоханссон, Себастьян Стэн, Энтони Маки, Дон Чидл, Джереми Реннер, Чэдвик Боузмэн, Пол Беттани, Элизабет Олсен

Если у вас возникли проблемы с закачкой Первый мститель: Противостояние / Captain America: Civil War (2016) BDRip 1080p от qqss44 | iTunes, перейдите по ссылке - там вы найдете решение своей проблемы.

Категория: Зарубежные фильмы

 

Скачать Первый мститель: Противостояние / Captain America: Civil War (2016) BDRip 1080p от qqss44 | iTunes бесплатно без регистрации

 

Информация
Посетители, находящиеся в группе Гости, не могут оставлять комментарии к данной публикации.
 
 
Скачать Первый мститель: Противостояние / Captain America: Civil War (2016) BDRip 1080p от qqss44 | iTunes бесплатно без регистрацииCopyright © 2019 .