Скачать Большой «Фитиль» (1963) DVDRip-AVC от New-Team бесплатно без регистрации





Описание:
В путь оправляется экспресс сатирического направления. Машинист Сергей Михалков даёт прощальный гудок... На первом вагоне надпись - "Дачурка". Далее следуют 8 новелл: "Дачурка", "Влип", "Сон в руку", "Гудок", "Увертюра", "Расплата", "Жалкий жребий", "Миллионер". Между новеллами "Гудок" и "Увертюра" - интермедия "Шашки".




Оригинальная аудиодорожка: русский

Продолжительность: 01:07:38

Режиссер: Мери Анджапаридзе, Эдуард Бочаров, Софья Милькина

Страна: СССР
Аудио: 48 kHz, Dolby Digital AC3 2.0, 192 kbps

Видео: 704->760х570 (4:3), 25,000 fps, H264 ~ 1345 kbps avg, 0.134 bit/pixel
Формат видео: MKV

Cубтитры: нет
Производство: Киностудия им. М.Горького, Мосфильм, Ленфильм, Союзмультфильм

Качество видео:Источник:Перевод:В ролях:
Николай Парфёнов, Юрий Никулин, Ролан Быков, Юрий Медведев, Николай Крючков, Леонид Быков, Сергей Филиппов, Николай Трофимов, Леонид Харитонов, Михаил Пуговкин, Вадим Захарченко, Владимир Прокофьев, Григорий Шпигель, Сергей Михалков, Константин Немоляев, Данута Столярская, Георгий Милляр, Павел Павленко, Геннадий Некрасов, Станислав Чекан...
DVDRip-AVC
Жанр: комедия
Раздача от:
MediaInfo
Общее
Полное имя : Bolshoy.«Fitil».1963.DVDRip-AVC_[New-team]_by_AVP_Studio.mkv
Формат : Matroska
Версия формата : Version 2
Размер файла : 744 Мбайт
Продолжительность : 1 ч. 7 м.
Общий поток : 1539 Кбит/сек
Дата кодирования : UTC 2019-03-18 16:18:51
Программа кодирования : mkvmerge v6.1.0 ('Old Devil') built on Mar 4 2013 09:10:42
Библиотека кодирования : libebml v1.3.0 + libmatroska v1.4.0

Видео
Идентификатор : 1
Формат : AVC
Формат/Информация : Advanced Video Codec
Профиль формата : High@L4.1
Настройки формата : CABAC / 10 Ref Frames
Параметр CABAC формата : Да
Параметр RefFrames формата : 10 кадров
Идентификатор кодека : V_MPEG4/ISO/AVC
Продолжительность : 1 ч. 7 м.
Битрейт : 1345 Кбит/сек
Ширина : 704 пикселя
Высота : 570 пикселей
Соотношение сторон : 4:3
Режим частоты кадров : Постоянный
Частота кадров : 25,000 кадров/сек
Цветовое пространство : YUV
Субдискретизация насыщенности : 4:2:0
Битовая глубина : 8 бит
Тип развёртки : Прогрессивная
Бит/(Пиксели*Кадры) : 0.134
Размер потока : 637 Мбайт (86%)
Библиотека кодирования : x264 core 157 r2935 545de2f
Настройки программы : cabac=1 / ref=10 / deblock=1:-2:-1 / analyse=0x3:0x113 / me=umh / subme=10 / psy=1 / psy_rd=1.00:0.00 / mixed_ref=1 / me_range=32 / chroma_me=1 / trellis=2 / 8x8dct=1 / cqm=0 / deadzone=21,11 / fast_pskip=1 / chroma_qp_offset=-2 / threads=6 / lookahead_threads=1 / sliced_threads=0 / nr=0 / decimate=0 / interlaced=0 / bluray_compat=0 / constrained_intra=0 / bframes=8 / b_pyramid=2 / b_adapt=2 / b_bias=0 / direct=3 / weightb=1 / open_gop=0 / weightp=2 / keyint=250 / keyint_min=25 / scenecut=40 / intra_refresh=0 / rc=2pass / mbtree=0 / bitrate=1345 / ratetol=1.0 / qcomp=0.60 / qpmin=0 / qpmax=69 / qpstep=4 / cplxblur=20.0 / qblur=0.5 / ip_ratio=1.40 / pb_ratio=1.30 / aq=1:1.00
Default : Да
Forced : Нет

Аудио
Идентификатор : 2
Формат : AC-3
Формат/Информация : Audio Coding 3
Коммерческое название : Dolby Digital
Идентификатор кодека : A_AC3
Продолжительность : 1 ч. 7 м.
Вид битрейта : Постоянный
Битрейт : 192 Кбит/сек
Каналы : 2 канала
Channel layout : L R
Частота : 48,0 КГц
Частота кадров : 31,250 кадров/сек (1536 SPF)
Битовая глубина : 16 бит
Метод сжатия : С потерями
Размер потока : 92,9 Мбайт (12%)
Default : Да
Forced : Нет

Скриншоты

ЗалилDVD5 R5
Об актёрах подробней

AVPStudio Оценка10 из 10 (1 голосов, самая низкая оценка - 10, самая высокая - 10) КатегорияНаши фильмы Раздают8 Качают2 Сидер замечен10-07-2019 15:19:12 (4 минуты назад) Добавлен21-03-2019 11:15:59 (4 месяца назад) Размер744.29 MB (780440628 Bytes)Год выпуска: 1963
Не требуется

Если у вас возникли проблемы с закачкой Большой «Фитиль» (1963) DVDRip-AVC от New-Team, перейдите по ссылке - там вы найдете решение своей проблемы.

Категория: Наши фильмы

 

Скачать Большой «Фитиль» (1963) DVDRip-AVC от New-Team бесплатно без регистрации

 

Информация
Посетители, находящиеся в группе Гости, не могут оставлять комментарии к данной публикации.
 
 
Скачать Большой «Фитиль» (1963) DVDRip-AVC от New-Team бесплатно без регистрацииCopyright © 2019 .