Скачать Миссия невыполнима: Протокол Фантом / Mission: Impossible - Ghost Protocol (2011) BDRip 720p от HDClub | D, A бесплатно без регистрации






Информация о фильме
О фильме:
Специальный агент отряда «Миссия невыполнима» Итан Хант и его коллеги несправедливо обвинены в причастности к взрыву Кремля. Президент инициирует «Протокол Фантом», в результате которого спецподразделение ликвидировано, и Итан остается без какой-либо поддержки. Он намерен очистить свое доброе имя и предотвратить новую атаку, но делать это ему придется вместе с командой коллег, истинных мотивов которых он до конца не знает.



Студия: Filmworks Inc., Paramount Pictures, Skydance Productions
Режиссер: Брэд Бёрд
Жанр: боевик, триллер, приключения
В ролях: Том Круз, Пола Пэттон, Саймон Пегг, Джереми Реннер, Микаэл Нюквист, Владимир Машков, Самули Эдельманн, Анил Капур, Леа Сейду, Джош Холлоуэй

Релиз:

Аудио#1: Russian: 48 kHz, DTS, 3/2 (L,C,R,l,r) + LFE ch, ~1509 kbps avg |Дубляж, Пифагор|
Аудио#5: Russian: 48 kHz, DTS, 3/2 (L,C,R,l,r) + LFE ch, ~1509 kbps avg |Авторский, Ю.Сербин|
Формат: Matroska
Субтитры: Russian, Ukrainian, English

MIОбщее
Уникальный идентификатор : 217681362213963435701895951297915188214 (0xA3C3E7C72233C46D9CAAA41A31FCF3F6)
Полное имя : Missiya.Nevypolnima.Protokol.Fantom.2011.BluRay.720p.4xRus.Ukr.Eng.HDCLUB.mkv
Формат : Matroska
Версия формата : Version 2
Размер файла : 13,7 Гбайт
Продолжительность : 2 ч. 12 м.
Общий поток : 14,8 Мбит/сек
Название фильма : Mission: Impossible - Ghost Protocol (2011) -Release for HDCLUB
Дата кодирования : UTC 2015-08-16 06:34:54
Программа кодирования : mkvmerge v5.8.0 ('No Sleep / Pillow') built on Sep 2 2012 15:37:04
Библиотека кодирования : libebml v1.2.3 + libmatroska v1.3.0

Видео
Идентификатор : 1
Формат : AVC
Формат/Информация : Advanced Video Codec
Профиль формата : High@L4.1
Параметр CABAC формата : Да
Параметр ReFrames формата : 12 кадров
Идентификатор кодека : V_MPEG4/ISO/AVC
Продолжительность : 2 ч. 12 м.
Битрейт : 5443 Кбит/сек
Ширина : 1280 пикселей
Высота : 534 пикселя
Соотношение сторон : 2,40:1
Режим частоты кадров : Постоянный
Частота кадров : 23,976 кадра/сек
Цветовое пространство : YUV
Субдискретизация насыщенности : 4:2:0
Битовая глубина : 8 бит
Тип развёртки : Прогрессивная
Бит/(Пиксели*Кадры) : 0.332
Размер потока : 5,05 Гбайт (37%)
Заголовок : Release for HDCLUB
Библиотека кодирования : x264 core 122 r2184 5c85e0a
Настройки программы : cabac=1 / ref=12 / deblock=1:-3:-3 / analyse=0x3:0x113 / me=esa / subme=10 / psy=1 / psy_rd=1.05:0.10 / mixed_ref=1 / me_range=24 / chroma_me=1 / trellis=2 / 8x8dct=1 / cqm=0 / deadzone=21,11 / fast_pskip=0 / chroma_qp_offset=-3 / threads=6 / sliced_threads=0 / nr=0 / decimate=0 / interlaced=0 / bluray_compat=0 / constrained_intra=0 / bframes=7 / b_pyramid=2 / b_adapt=2 / b_bias=0 / direct=3 / weightb=1 / open_gop=0 / weightp=2 / keyint=250 / keyint_min=23 / scenecut=40 / intra_refresh=0 / rc_lookahead=60 / rc=crf / mbtree=0 / crf=16.5 / qcomp=0.60 / qpmin=0 / qpmax=69 / qpstep=4 / vbv_maxrate=40000 / vbv_bufsize=30000 / crf_max=0.0 / nal_hrd=none / ip_ratio=1.40 / pb_ratio=1.30 / aq=1:0.75 / zones=181850,191238,b=0.3
Язык : English
Default : Нет
Forced : Нет
Цветовой диапазон : Limited
Основные цвета : BT.709
Характеристики трансфера : BT.709
Коэффициенты матрицы : BT.709

Аудио #1
Идентификатор : 2
Формат : DTS
Формат/Информация : Digital Theater Systems
Режим : 16
Параметр Endianness формата : Big
Идентификатор кодека : A_DTS
Продолжительность : 2 ч. 12 м.
Вид битрейта : Постоянный
Битрейт : 1509 Кбит/сек
Каналы : 6 каналов
Расположение каналов : Front: L C R, Side: L R, LFE
Частота : 48,0 КГц
Битовая глубина : 24 бит
Метод сжатия : С потерями
Размер потока : 1,40 Гбайт (10%)
Заголовок : DUB DTS,1509 kbps avg 5.1Ch
Язык : Russian
Default : Да
Forced : Да

Аудио #2
Идентификатор : 3
Формат : DTS
Формат/Информация : Digital Theater Systems
Режим : 16
Параметр Endianness формата : Big
Идентификатор кодека : A_DTS
Продолжительность : 2 ч. 12 м.
Вид битрейта : Постоянный
Битрейт : 1509 Кбит/сек
Каналы : 6 каналов
Расположение каналов : Front: L C R, Side: L R, LFE
Частота : 48,0 КГц
Битовая глубина : 24 бит
Метод сжатия : С потерями
Размер потока : 1,40 Гбайт (10%)
Заголовок : DUB DTS,1509 kbps avg 5.1Ch
Язык : Ukrainian
Default : Нет
Forced : Нет

Аудио #3
Идентификатор : 4
Формат : DTS
Формат/Информация : Digital Theater Systems
Режим : 16
Параметр Endianness формата : Big
Идентификатор кодека : A_DTS
Продолжительность : 2 ч. 12 м.
Вид битрейта : Постоянный
Битрейт : 1509 Кбит/сек
Каналы : 6 каналов
Расположение каналов : Front: L C R, Side: L R, LFE
Частота : 48,0 КГц
Битовая глубина : 24 бит
Метод сжатия : С потерями
Размер потока : 1,40 Гбайт (10%)
Заголовок : DTS,1509 kbps avg 5.1Ch AVO |А.Гаврилов|
Язык : Russian
Default : Нет
Forced : Нет

Аудио #4
Идентификатор : 5
Формат : DTS
Формат/Информация : Digital Theater Systems
Режим : 16
Параметр Endianness формата : Big
Идентификатор кодека : A_DTS
Продолжительность : 2 ч. 12 м.
Вид битрейта : Постоянный
Битрейт : 1509 Кбит/сек
Каналы : 6 каналов
Расположение каналов : Front: L C R, Side: L R, LFE
Частота : 48,0 КГц
Битовая глубина : 24 бит
Метод сжатия : С потерями
Размер потока : 1,40 Гбайт (10%)
Заголовок : DTS,1509 kbps avg 5.1Ch AVO |Ю.Живов|
Язык : Russian
Default : Нет
Forced : Нет

Аудио #5
Идентификатор : 6
Формат : DTS
Формат/Информация : Digital Theater Systems
Режим : 16
Параметр Endianness формата : Big
Идентификатор кодека : A_DTS
Продолжительность : 2 ч. 12 м.
Вид битрейта : Постоянный
Битрейт : 1509 Кбит/сек
Каналы : 6 каналов
Расположение каналов : Front: L C R, Side: L R, LFE
Частота : 48,0 КГц
Битовая глубина : 24 бит
Метод сжатия : С потерями
Размер потока : 1,40 Гбайт (10%)
Заголовок : DTS,1509 kbps avg 5.1Ch AVO |Ю.Сербин|
Язык : Russian
Default : Нет
Forced : Нет

Аудио #6
Идентификатор : 7
Формат : DTS
Формат/Информация : Digital Theater Systems
Режим : 16
Параметр Endianness формата : Big
Идентификатор кодека : A_DTS
Продолжительность : 2 ч. 12 м.
Вид битрейта : Постоянный
Битрейт : 1509 Кбит/сек
Каналы : 6 каналов
Расположение каналов : Front: L C R, Side: L R, LFE
Частота : 48,0 КГц
Битовая глубина : 24 бит
Метод сжатия : С потерями
Размер потока : 1,40 Гбайт (10%)
Язык : English
Default : Нет
Forced : Нет

Текст #1
Идентификатор : 8
Формат : UTF-8
Идентификатор кодека : S_TEXT/UTF8
Идентификатор кодека/Информация : UTF-8 Plain Text
Заголовок : Full @ voronine
Язык : Russian
Default : Нет
Forced : Нет

Текст #2
Идентификатор : 9
Формат : UTF-8
Идентификатор кодека : S_TEXT/UTF8
Идентификатор кодека/Информация : UTF-8 Plain Text
Заголовок : Full-Phrases @ voronine
Язык : Russian
Default : Нет
Forced : Нет

Текст #3
Идентификатор : 10
Формат : UTF-8
Идентификатор кодека : S_TEXT/UTF8
Идентификатор кодека/Информация : UTF-8 Plain Text
Язык : Ukrainian
Default : Нет
Forced : Нет

Текст #4
Идентификатор : 11
Формат : UTF-8
Идентификатор кодека : S_TEXT/UTF8
Идентификатор кодека/Информация : UTF-8 Plain Text
Заголовок : Forced
Язык : English
Default : Нет
Forced : Нет

Текст #5
Идентификатор : 12
Формат : UTF-8
Идентификатор кодека : S_TEXT/UTF8
Идентификатор кодека/Информация : UTF-8 Plain Text
Заголовок : Full
Язык : English
Default : Нет
Forced : Нет

Текст #6
Идентификатор : 13
Формат : UTF-8
Идентификатор кодека : S_TEXT/UTF8
Идентификатор кодека/Информация : UTF-8 Plain Text
Заголовок : SDH
Язык : English
Default : Нет
Forced : Нет

Меню
00:00:00.000 : en:Chapter 01
00:04:41.907 : en:Chapter 02
00:11:28.897 : en:Chapter 03
00:20:01.951 : en:Chapter 04
00:27:35.320 : en:Chapter 05
00:33:28.173 : en:Chapter 06
00:38:18.087 : en:Chapter 07
00:44:46.100 : en:Chapter 08
00:51:37.219 : en:Chapter 09
00:56:05.153 : en:Chapter 10
01:02:50.183 : en:Chapter 11
01:09:17.820 : en:Chapter 12
01:16:32.379 : en:Chapter 13
01:22:18.517 : en:Chapter 14
01:31:17.055 : en:Chapter 15
01:35:57.377 : en:Chapter 16
01:42:49.914 : en:Chapter 17
01:51:01.780 : en:Chapter 18
01:58:26.391 : en:Chapter 19
02:05:58.843 : en:Chapter 20Скриншоты ЗалилГод выхода: 2011
Название: Миссия невыполнима: Протокол Фантом
Аудио#6: English: 48 kHz, DTS, 3/2 (L,C,R,l,r) + LFE ch, ~1509 kbps avg
Оригинальное название: Mission: Impossible - Ghost Protocol
Аудио#3: Russian: 48 kHz, DTS, 3/2 (L,C,R,l,r) + LFE ch, ~1509 kbps avg |Авторский, А.Гаврилов|
MrRavage Оценка10 из 10 (1 голосов, самая низкая оценка - 10, самая высокая - 10) КатегорияЗарубежные фильмы Раздают0 Качают1 Сидер замечен03-05-2019 18:19:07 (2 месяца назад) Добавлен17-08-2015 22:49:32 (47 месяцев назад) Размер13.73 GB (14747172233 Bytes)Аудио#2: Ukrainian: 48 kHz, DTS, 3/2 (L,C,R,l,r) + LFE ch, ~1509 kbps avg |Дубляж, LeDoyen Studio|
Аудио#4: Russian: 48 kHz, DTS, 3/2 (L,C,R,l,r) + LFE ch, ~1509 kbps avg |Авторский, Ю.Живов|
Продолжительность: 02:12:56
Страна: США, ОАЭ, Чехия
Видео: 1280x534 at 23.976 fps, x264@L4.1, ~5443 kbps avg
Перевод: Профессиональный (дублированный) + Авторский (одноголосый, закадровый) А.Гаврилов + Авторский (одноголосый, закадровый) Ю.Живов + Авторский (одноголосый, закадровый) Ю.Сербин

Если у вас возникли проблемы с закачкой Миссия невыполнима: Протокол Фантом / Mission: Impossible - Ghost Protocol (2011) BDRip 720p от HDClub | D, A, перейдите по ссылке - там вы найдете решение своей проблемы.

Категория: Зарубежные фильмы

 

Скачать Миссия невыполнима: Протокол Фантом / Mission: Impossible - Ghost Protocol (2011) BDRip 720p от HDClub | D, A бесплатно без регистрации

 

Информация
Посетители, находящиеся в группе Гости, не могут оставлять комментарии к данной публикации.
 
 
Скачать Миссия невыполнима: Протокол Фантом / Mission: Impossible - Ghost Protocol (2011) BDRip 720p от HDClub | D, A бесплатно без регистрацииCopyright © 2019 .