Скачать Правда - хорошо, а счастье лучше (1951) DVDRip от New-Team бесплатно без регистрации





DVD9 R5
Cубтитры: нет
Раздача от:
MediaInfo
Общее
Полное имя : Pravda–horosho,a.schaste.luchshe.1951.DVDRip-1.09_[New-team]_by_AVP_Studio.avi
Формат : AVI
Формат/Информация : Audio Video Interleave
Размер файла : 1,09 Гбайт
Продолжительность : 2 ч. 18 м.
Общий поток : 1125 Кбит/сек
Программа кодирования : VirtualDubMod 1.5.10.3 | www.virtualdub-fr.org || (build 2550/release)
Библиотека кодирования : VirtualDubMod build 2550/release

Видео
Идентификатор : 0
Формат : MPEG-4 Visual
Профиль формата : Advanced Simple@L5
Параметр BVOP формата : 1
Параметр QPel формата : Нет
Параметр GMC формата : Без точки перехода
Параметр матрицы формата : Выборочная
Идентификатор кодека : XVID
Идентификатор кодека/Подсказка : XviD
Продолжительность : 2 ч. 18 м.
Битрейт : 987 Кбит/сек
Ширина : 576 пикселей
Высота : 432 пикселя
Соотношение сторон : 4:3
Частота кадров : 25,000 кадров/сек
Цветовое пространство : YUV
Субдискретизация насыщенности : 4:2:0
Битовая глубина : 8 бит
Тип развёртки : Прогрессивная
Метод сжатия : С потерями
Бит/(Пиксели*Кадры) : 0.159
Размер потока : 979 Мбайт (88%)
Библиотека кодирования : XviD 73

Аудио
Идентификатор : 1
Формат : MPEG Audio
Версия формата : Version 1
Профиль формата : Layer 3
Идентификатор кодека : 55
Идентификатор кодека/Подсказка : MP3
Продолжительность : 2 ч. 18 м.
Вид битрейта : Постоянный
Битрейт : 128 Кбит/сек
Каналы : 2 канала
Частота : 48,0 КГц
Метод сжатия : С потерями
Размер потока : 127 Мбайт (11%)
Выравнивание : Соединение по промежуткам
Продолжительность промежутка : 40 мс. (1,00 видеокадр)
Время предзагрузки промежутка : 504 мс.
Библиотека кодирования : LAME3.99r
Настройки программы : -m s -V 4 -q 2 -lowpass 17 -b 128

Скриншоты

ЗалилКачество видео:Жанр: драма, мелодрама, комедия
Формат видео: AVI

Год выпуска: 1951
Видео: 576x432 (4:3), 25 fps, XviD ~ 987 kbps avg, 0.159 bit/pixel
Не требуется
AVPStudio Оценка10 из 10 (2 голосов, самая низкая оценка - 10, самая высокая - 10) КатегорияНаши фильмы Раздают0 Качают0 Сидер замечен10-07-2019 5:19:12 (8 часов назад) Добавлен21-06-2016 13:24:35 (37 месяцев назад) Размер1.09 GB (1169633280 Bytes)Режиссер: Сергей Женовач, Игорь Ларин

Перевод:Описание:
Властная старуха Мавра Тарасовна, мать московского купца Амоса Панфиловича Барабошева, ищет для своей внучки Поликсены жениха-генерала. Но девушка любит приказчика Платона Зыбкина, честного и бедного парня, задолжавшего хозяину двести рублей. Платону грозит долговая тюрьма.
Стараниями няньки Поликсены, решившей помочь влюбленным, в доме появляется новый сторож — отставной унтер-офицер Сила Ерофеевич Грознов, бывший любовник Мавры Тарасовны. Перепуганная тем, что старые грехи станут всем известны, старуха удовлетворяет требования Грознова — уничтожает вексель Платона и разрешает внучке выйти за него замуж.



В ролях:
Николай Рыжов, Евдокия Турчанинова, Валерия Новак, Варвара Рыжова, А. Карцев, Александр Сашин-Никольский, В. Баринова, Дмитрий Павлов, Федор Григорьев...

Производство: Студия Горького

Оригинальная аудиодорожка: русский

DVDRip
Продолжительность: 02:18:37

Страна: СССР
Источник:Аудио: 48 kHz, MP3 2.0, 128 kbps

Если у вас возникли проблемы с закачкой Правда - хорошо, а счастье лучше (1951) DVDRip от New-Team, перейдите по ссылке - там вы найдете решение своей проблемы.

Категория: Наши фильмы

 

Скачать Правда - хорошо, а счастье лучше (1951) DVDRip от New-Team бесплатно без регистрации

 

Информация
Посетители, находящиеся в группе Гости, не могут оставлять комментарии к данной публикации.
 
 
Скачать Правда - хорошо, а счастье лучше (1951) DVDRip от New-Team бесплатно без регистрацииCopyright © 2019 .