Скачать Чужое лицо [S01] (2017) HDTV 1080p от Generalfilm бесплатно без регистрации





Информация о фильме
Продолжительность: 00:50:31
Valkiria-G.F. ОценкаНикто ещё не поставил оценку КатегорияНаши сериалы Раздают1 Качают0 Сидер замечен10-07-2019 12:19:12 (4 минуты назад) Добавлен15-12-2017 4:01:03 (19 месяцев назад) Размер50.58 GB (54307655843 Bytes)Релиз от:

ОтчетМедиаИнфо
General
Unique ID : 247248193936059490054670587567726950356 (0xBA024521529378BEBD27AFA70D8077D4)
Complete name : E:Chuzhoe lico.2017.HDTV 1080p.R.G.GeneralfilmChuzhoe lico.s01.e01.2017.HDTV 1080p.by.White Smoke.R.G.Generalfilm.mkv
Format : Matroska
Format version : Version 4 / Version 2
File size : 2.55 GiB
Duration : 50 min
Overall bit rate mode : Constant
Overall bit rate : 7 222 kb/s
Movie name : Chuzhoe lico.s01.e01.2017.HDTV 1080p.by.White Smoke.R.G.Generalfilm.mkv
Encoded date : UTC 2017-12-08 16:41:10
Writing application : mkvmerge v6.8.0 ('Theme for Great Cities') 64bit built on Mar 2 2014 21:34:26
Writing library : libebml v1.3.0 + libmatroska v1.4.1

Video
ID : 1
Format : AVC
Format/Info : Advanced Video Codec
Format profile : High@L4.1
Format settings, CABAC : Yes
Format settings, ReFrames : 3 frames
Format settings, GOP : M=3, N=33
Codec ID : V_MPEG4/ISO/AVC
Duration : 50 min
Bit rate mode : Constant
Bit rate : 7 051 kb/s
Width : 1 920 pixels
Height : 1 080 pixels
Display aspect ratio : 16:9
Frame rate mode : Constant
Frame rate : 25.000 FPS
Standard : PAL
Color space : YUV
Chroma subsampling : 4:2:0
Bit depth : 8 bits
Scan type : Progressive
Bits/(Pixel*Frame) : 0.136
Stream size : 2.43 GiB (95%)
Default : Yes
Forced : No
Color range : Limited
Color primaries : BT.709
Transfer characteristics : BT.709
Matrix coefficients : BT.709

Audio
ID : 2
Format : AC-3
Format/Info : Audio Coding 3
Mode extension : CM (complete main)
Format settings, Endianness : Big
Codec ID : A_AC3
Duration : 50 min
Bit rate mode : Constant
Bit rate : 192 kb/s
Channel(s) : 2 channels
Channel positions : Front: L R
Sampling rate : 48.0 kHz
Frame rate : 31.250 FPS (1536 spf)
Compression mode : Lossy
Stream size : 69.4 MiB (3%)
Default : Yes
Forced : No

Скриншоты
ЗалилАудио: AC3 / 2.0 / 48 kHz / 192 kbps /
Перевод: Не требуется [Русский]
Страна: Россия
Формат: MKV
Жанр: приключения, детектив, криминал
Видео: AVC, 1920x1080 (16:9), 7050 kbps, 25 fps, 0,136 bpp
Режиссер: Иван Криворучко , Григорий Жихаревич
Описание:
Расследуя гибель известного бандита, следователь Егор Котов с ужасом узнал на месте преступления своего родного сына Дениса. Выясняется, что теперь его сын - сотрудник полиции, работающий под прикрытием. Однако, операция, которая готовилась годами сорвана. Ситуация выходит из-под контроля, и волею случая Денис отправляется в Соловецк, куда ведут нити зреющего заговора. Котов устремляется на его поиски, но оказывается в центре нового конфликта. Теперь, в чужом городе, под чужим именем, он - внедренный в мафию сотрудник полиции. Здесь он не Котов, а Евгений Лаврин. И ему предстоит раскрыть серию преступлений в Соловецке, и - самое главное - во что бы то ни стало найти своего сына!
В ролях: Алексей Кравченко (Егор Котов), Антон Момот, Валерий Соловьев, Аркадий Шароградский, Никита Барсуков, Ольга Павлюкова, Евгений Ганелин, Георгий Маришин, Роман Жилкин, Сергей Лысов, Сергей Бызгу, Василий Щипицын

Качество: HDTV 1080p
Год выпуска: 2017

Название: Чужое лицо

Если у вас возникли проблемы с закачкой Чужое лицо [S01] (2017) HDTV 1080p от Generalfilm, перейдите по ссылке - там вы найдете решение своей проблемы.

Категория: Наши сериалы

 

Скачать Чужое лицо [S01] (2017) HDTV 1080p от Generalfilm бесплатно без регистрации

 

Информация
Посетители, находящиеся в группе Гости, не могут оставлять комментарии к данной публикации.
 
 
Скачать Чужое лицо [S01] (2017) HDTV 1080p от Generalfilm бесплатно без регистрацииCopyright © 2019 .