Скачать Класс 1984 / Class of 1984 (1982) BDRip 720p от NNNB | A бесплатно без регистрации




Год выхода: 1982
Качество: BDRip 720p (исходник Blu-Ray Disc Remux)
Перевод: Авторский (Одноголосый, закадровый)
Русское название: Класс 1984
Оригинальное название: Class of 1984
Выпущено: Великобритания, США
Режиссер: Марк Л. Лестер
envy. Оценка10 из 10 (1 голосов, самая низкая оценка - 10, самая высокая - 10) КатегорияЗарубежные фильмы Раздают2 Качают0 Сидер замечен10-07-2019 11:19:12 (4 минуты назад) Добавлен06-07-2017 19:03:38 (24 месяца назад) Размер4.37 GB (4694920806 Bytes)Форсированные субтитры: Нет
Чаптеры (Главы): Есть


Формат: MKV
Аудио 1: AC-3, 448 Кбит/сек, 6 канала(ов), 48,0 КГц - Одноголосый закадровый, А.Гаврилов / Русский
В ролях: Перри Кинг, Мерри Линн Росс, Родди МакДауэлл, Тимоти Ван Паттен, Майкл Джей Фокс, Эл Уэксмэн

Субтитры: Английские | Полные
Группа:

Скриншоты




MediaInfoFormat : Matroska
Format version : Version 2
File size : 4.37 GiB
Duration : 1 h 38 min
Overall bit rate : 6 374 kb/s
Movie name : Class of 1984.(1982).BDRip.720p.[envy]
Encoded date : UTC 2016-12-04 06:06:00
Writing application : mkvmerge v5.8.0 ('No Sleep / Pillow') built on Sep 2 2012 15:37:04
Writing library : libebml v1.2.3 + libmatroska v1.3.0

Video
ID : 1
Format : AVC
Format/Info : Advanced Video Codec
Format profile : High@L4.1
Format settings, CABAC : Yes
Format settings, ReFrames : 9 frames
Codec ID : V_MPEG4/ISO/AVC
Duration : 1 h 38 min
Bit rate : 5 478 kb/s
Width : 1 280 pixels
Height : 720 pixels
Display aspect ratio : 16:9
Frame rate mode : Constant
Frame rate : 23.976 (24000/1001) FPS
Color space : YUV
Chroma subsampling : 4:2:0
Bit depth : 8 bits
Scan type : Progressive
Bits/(Pixel*Frame) : 0.248
Stream size : 3.67 GiB (84%)
Title : Class of 1984.(1982).BDRip.720p.[envy]
Writing library : x264 core 148 r2721 72d53ab
Encoding settings : cabac=1 / ref=9 / deblock=1:-3:-3 / analyse=0x3:0x113 / me=umh / subme=11 / psy=1 / psy_rd=1.00:0.00 / mixed_ref=1 / me_range=32 / chroma_me=1 / trellis=2 / 8x8dct=1 / cqm=0 / deadzone=21,11 / fast_pskip=0 / chroma_qp_offset=-2 / threads=12 / lookahead_threads=1 / sliced_threads=0 / nr=0 / decimate=1 / interlaced=0 / bluray_compat=0 / constrained_intra=0 / bframes=5 / b_pyramid=2 / b_adapt=2 / b_bias=0 / direct=3 / weightb=1 / open_gop=0 / weightp=2 / keyint=240 / keyint_min=23 / scenecut=40 / intra_refresh=0 / rc=2pass / mbtree=0 / bitrate=5478 / ratetol=2.0 / qcomp=0.60 / qpmin=0 / qpmax=69 / qpstep=4 / cplxblur=20.0 / qblur=0.5 / ip_ratio=1.40 / pb_ratio=1.30 / aq=2:0.70
Language : English
Default : Yes
Forced : No

Audio #1
ID : 2
Format : AC-3
Format/Info : Audio Coding 3
Mode extension : CM (complete main)
Format settings, Endianness : Big
Codec ID : A_AC3
Duration : 1 h 38 min
Bit rate mode : Constant
Bit rate : 448 kb/s
Channel(s) : 6 channels
Channel positions : Front: L C R, Side: L R, LFE
Sampling rate : 48.0 kHz
Frame rate : 31.250 FPS (1536 spf)
Compression mode : Lossy
Stream size : 315 MiB (7%)
Title : AVO Гаврилов
Language : Russian
Default : Yes
Forced : No

Audio #2
ID : 3
Format : AC-3
Format/Info : Audio Coding 3
Mode extension : CM (complete main)
Format settings, Endianness : Big
Codec ID : A_AC3
Duration : 1 h 38 min
Bit rate mode : Constant
Bit rate : 448 kb/s
Channel(s) : 6 channels
Channel positions : Front: L C R, Side: L R, LFE
Sampling rate : 48.0 kHz
Frame rate : 31.250 FPS (1536 spf)
Compression mode : Lossy
Stream size : 315 MiB (7%)
Title : Eng
Language : English
Default : No
Forced : No

Text
ID : 4
Format : UTF-8
Codec ID : S_TEXT/UTF8
Codec ID/Info : UTF-8 Plain Text
Title : Eng full
Language : English
Default : No
Forced : No

Menu
00:00:00.000 : :Chapter 01
00:10:40.264 : :Chapter 02
00:17:39.141 : :Chapter 03
00:26:31.840 : :Chapter 04
00:35:56.696 : :Chapter 05
00:45:00.864 : :Chapter 06
00:53:28.121 : :Chapter 07
01:00:39.510 : :Chapter 08
01:07:26.208 : :Chapter 09
01:16:55.027 : :Chapter 10
01:22:54.427 : :Chapter 11
01:30:46.399 : :Chapter 12
ЗалилПродолжительность: 01:38:13
Сюжет фильма
Банда оголтелых школьников преследует нового учителя, решившего навести в классе порядок. Озверевшие панки-школьники во главе с учеником-психопатом избивают его, а жену насилуют. Месть учителя не уступает по жестокости выходкам банды, но заметно превосходит их по изощренности.

Жанр: боевик, триллер, драма, криминал
Видео: 1280x720, 5478 Кбит/сек, 23,976 кадр/сек, AVC, x264, High@L4.1, 16:9, 0.248 Бит/[Пиксели*Кадры]
Автор Рипа: Аудио 2: AC-3, 448 Кбит/сек, 6 канала(ов), 48,0 КГц - Оригинал / Английский
Файл
Информация о фильме

Если у вас возникли проблемы с закачкой Класс 1984 / Class of 1984 (1982) BDRip 720p от NNNB | A, перейдите по ссылке - там вы найдете решение своей проблемы.

Категория: Зарубежные фильмы

 

Скачать Класс 1984 / Class of 1984 (1982) BDRip 720p от NNNB | A бесплатно без регистрации

 

Информация
Посетители, находящиеся в группе Гости, не могут оставлять комментарии к данной публикации.
 
 
Скачать Класс 1984 / Class of 1984 (1982) BDRip 720p от NNNB | A бесплатно без регистрацииCopyright © 2019 .