Скачать Детка / Laggies (2014) BDRip 1080p от ExKinoRay | D | iTunes Russia бесплатно без регистрации







Информация о фильме

Аудио: Русский (AC3, 6 ch, 384 Кбит/с), английский (AC3, 6 ch, 448 Кбит/с), (DTS, 6 ch, 1509 Кбит/с)
Качество: BDRip (1080p)
Жанр: Мелодрама, комедия
Оригинальное название: Laggies
Релиз от: В ролях: Кира Найтли, Хлоя Грейс Морец, Сэм Рокуэлл, Марк Веббер, Элли Кемпер, Джефф Гарлин, Гретхен Мол, Эрик Ридман, Кейтлин Девер, Дэниэл Дзоватто


Размер: 7.02 ГБ
О фильме: Когда Меган получает предложение от парня, с которым уже давно встречается, оказывается, что на самом деле она абсолютно не готова к взрослой жизни. Поэтому она берет паузу, врёт своему парню, что уезжает на недельку в отпуск, а сама буквально «впадает в детство» и отрывается в компании малознакомых тинейджеров. Возможно, чтобы повзрослеть, ей нужно встретить другого мужчину?






Название: Детка
ollan Оценка10 из 10 (1 голосов, самая низкая оценка - 10, самая высокая - 10) КатегорияЗарубежные фильмы Раздают0 Качают0 Сидер замечен07-07-2019 23:19:13 (2 дня назад) Добавлен02-02-2015 13:07:29 (54 месяца назад) Размер7.02 GB (7541627175 Bytes)Год выпуска: 2014
Режиссер: Линн Шелтон
Перевод: Дублированный
Rip by: ЗалилВыпущено: США, Anonymous Content, BR Capital Group, Merced Media Partners
Субтитры: Английские


Сохранены оригинальные чаптеры как на Blu-Ray.
Озвучивание - Дублированное (iTunes Russia)


x264
x264 [info]: frame I:1054 Avg QP:15.68 size:212519
x264 [info]: frame P:29523 Avg QP:18.04 size: 77700
x264 [info]: frame B:112411 Avg QP:19.57 size: 29145
x264 [info]: consecutive B-frames: 1.2% 2.4% 7.2% 15.6% 17.7% 50.0% 4.2% 0.7% 0.3% 0.6%
x264 [info]: mb I I16..4: 10.2% 75.2% 14.6%
x264 [info]: mb P I16..4: 2.6% 19.9% 1.7% P16..4: 31.3% 30.2% 5.7% 1.2% 0.1% skip: 7.3%
x264 [info]: mb B I16..4: 0.7% 2.2% 0.2% B16..8: 34.3% 16.1% 1.9% direct: 8.5% skip:36.2% L0:44.4% L1:44.5% BI:11.0%
x264 [info]: 8x8 transform intra:78.5% inter:54.3%
x264 [info]: direct mvs spatial:98.5% temporal:1.5%
x264 [info]: coded y,uvDC,uvAC intra: 76.9% 81.4% 59.4% inter: 23.1% 32.2% 9.8%
x264 [info]: i16 v,h,dc,p: 29% 13% 9% 48%
x264 [info]: i8 v,h,dc,ddl,ddr,vr,hd,vl,hu: 10% 8% 15% 9% 11% 12% 11% 12% 13%
x264 [info]: i4 v,h,dc,ddl,ddr,vr,hd,vl,hu: 14% 12% 23% 6% 10% 10% 8% 8% 9%
x264 [info]: i8c dc,h,v,p: 42% 22% 22% 14%
x264 [info]: Weighted P-Frames: Y:3.5% UV:2.0%
x264 [info]: ref P L0: 47.4% 7.8% 31.2% 12.4% 1.1% 0.0%
x264 [info]: ref B L0: 82.2% 14.2% 3.7%
x264 [info]: ref B L1: 90.9% 9.1%
x264 [info]: kb/s:7772.51


Инфо-файл
Общее
Уникальный идентификатор : 248843582606583545014073905512435984882 (0xBB3587DD55E3B84AACFD861078C8A9F2)
Полное имя : D:ЗагрузкиLaggies.2014.x264.BDRip.(1080p).ExKinoRay.mkv
Формат : Matroska
Версия формата : Version 2
Размер файла : 7,02 Гбайт
Продолжительность : 1 ч. 39 м.
Общий поток : 10,1 Мбит/сек
Название фильма : Детка.2014.Rip by: ollan
Дата кодирования : UTC 2015-02-02 09:18:38
Программа кодирования : mkvmerge v5.6.0 ('Kenya Kane') built on May 27 2012 16:44:04
Библиотека кодирования : libebml v1.2.3 + libmatroska v1.3.0

Видео
Идентификатор : 1
Формат : AVC
Формат/Информация : Advanced Video Codec
Профиль формата : High@L4.1
Параметр CABAC формата : Да
Параметр ReFrames формата : 4 кадра
Идентификатор кодека : V_MPEG4/ISO/AVC
Продолжительность : 1 ч. 39 м.
Битрейт : 7777 Кбит/сек
Ширина : 1920 пикселей
Высота : 1040 пикселей
Соотношение сторон : 1,85:1
Режим частоты кадров : Постоянный
Частота кадров : 23,976 кадра/сек
Цветовое пространство : YUV
Субдискретизация насыщенности : 4:2:0
Битовая глубина : 8 бит
Тип развёртки : Прогрессивная
Бит/(Пиксели*Кадры) : 0.162
Размер потока : 5,26 Гбайт (75%)
Библиотека кодирования : x264 core 125 r2200 999b753
Настройки программы : cabac=1 / ref=4 / deblock=1:-3:-3 / analyse=0x3:0x133 / me=umh / subme=11 / psy=1 / psy_rd=1.00:0.10 / mixed_ref=1 / me_range=32 / chroma_me=1 / trellis=2 / 8x8dct=1 / cqm=0 / deadzone=21,11 / fast_pskip=0 / chroma_qp_offset=-3 / threads=12 / lookahead_threads=2 / sliced_threads=0 / nr=0 / decimate=0 / interlaced=0 / bluray_compat=0 / constrained_intra=0 / bframes=9 / b_pyramid=2 / b_adapt=2 / b_bias=0 / direct=3 / weightb=1 / open_gop=0 / weightp=2 / keyint=240 / keyint_min=23 / scenecut=40 / intra_refresh=0 / rc=2pass / mbtree=0 / bitrate=7777 / ratetol=1.0 / qcomp=0.60 / qpmin=0 / qpmax=69 / qpstep=4 / cplxblur=20.0 / qblur=0.5 / ip_ratio=1.40 / pb_ratio=1.30 / aq=1:1.00
Язык : English
Default : Да
Forced : Нет

Аудио #1
Идентификатор : 2
Формат : AC-3
Формат/Информация : Audio Coding 3
Расширение режима : CM (complete main)
Параметр Endianness формата : Big
Идентификатор кодека : A_AC3
Продолжительность : 1 ч. 39 м.
Вид битрейта : Постоянный
Битрейт : 384 Кбит/сек
Каналы : 6 каналов
Расположение каналов : Front: L C R, Side: L R, LFE
Частота : 48,0 КГц
Битовая глубина : 16 бит
Метод сжатия : С потерями
Размер потока : 273 Мбайт (4%)
Заголовок : Дублированный (iTunes Russia)
Язык : Russian
Default : Да
Forced : Нет

Аудио #2
Идентификатор : 3
Формат : AC-3
Формат/Информация : Audio Coding 3
Расширение режима : CM (complete main)
Параметр Endianness формата : Big
Идентификатор кодека : A_AC3
Продолжительность : 1 ч. 39 м.
Вид битрейта : Постоянный
Битрейт : 448 Кбит/сек
Каналы : 6 каналов
Расположение каналов : Front: L C R, Side: L R, LFE
Частота : 48,0 КГц
Битовая глубина : 16 бит
Метод сжатия : С потерями
Размер потока : 319 Мбайт (4%)
Язык : English
Default : Нет
Forced : Нет

Аудио #3
Идентификатор : 4
Формат : DTS
Формат/Информация : Digital Theater Systems
Режим : 16
Параметр Endianness формата : Big
Идентификатор кодека : A_DTS
Продолжительность : 1 ч. 39 м.
Вид битрейта : Постоянный
Битрейт : 1509 Кбит/сек
Каналы : 6 каналов
Расположение каналов : Front: L C R, Side: L R, LFE
Частота : 48,0 КГц
Битовая глубина : 24 бит
Метод сжатия : С потерями
Размер потока : 1,05 Гбайт (15%)
Язык : English
Default : Нет
Forced : Нет

Текст
Идентификатор : 5
Формат : UTF-8
Идентификатор кодека : S_TEXT/UTF8
Идентификатор кодека/Информация : UTF-8 Plain Text
Заголовок : Full
Язык : English
Default : Нет
Forced : Нет

Меню
00:00:00.000 : en:Chapter 01
00:07:23.359 : en:Chapter 03
00:13:09.914 : en:Chapter 05
00:17:17.578 : en:Chapter 07
00:24:35.098 : en:Chapter 09
00:29:50.997 : en:Chapter 11
00:33:44.981 : en:Chapter 13
00:39:45.091 : en:Chapter 15
00:45:31.895 : en:Chapter 17
00:51:26.249 : en:Chapter 19
01:00:09.522 : en:Chapter 21
01:07:57.156 : en:Chapter 23
01:14:56.283 : en:Chapter 25
01:22:21.061 : en:Chapter 27
01:29:27.195 : en:Chapter 29
01:33:31.772 : en:Chapter 31
01:39:23.540 : en:Chapter 32




Скриншоты







Продолжительность: 01:39:23
Видео: MPEG4-AVC, 7777 Кбит/с, 1920x1040, 23.976 кадр/с

Если у вас возникли проблемы с закачкой Детка / Laggies (2014) BDRip 1080p от ExKinoRay | D | iTunes Russia, перейдите по ссылке - там вы найдете решение своей проблемы.

Категория: Зарубежные фильмы

 

Скачать Детка / Laggies (2014) BDRip 1080p от ExKinoRay | D | iTunes Russia бесплатно без регистрации

 

Информация
Посетители, находящиеся в группе Гости, не могут оставлять комментарии к данной публикации.
 
 
Скачать Детка / Laggies (2014) BDRip 1080p от ExKinoRay | D | iTunes Russia бесплатно без регистрацииCopyright © 2019 .