Скачать Таймлесс 2: Сапфировая книга / Saphirblau (2014) HDRip от AleksSin | P | Лицензия бесплатно без регистрации






Информация о фильме
Страна: Германия
(русский)
Жанр: фантастика, фэнтези, драма, мелодрама, детектив
Название: Таймлесс 2: Сапфировая книга
Релиз от: ЗалилСубтитры: нет

(Исх. BDRip 720p)
Качество: HDRip*AleksSin* Оценка7 из 10 (1 голосов, самая низкая оценка - 7, самая высокая - 7) КатегорияЗарубежные фильмы Раздают0 Качают0 Сидер замечен08-07-2019 18:19:13 (2 дня назад) Добавлен22-02-2015 13:17:42 (53 месяца назад) Размер2.06 GB (2207211520 Bytes)В ролях: Мария Эрих, Яннис Нивёнер, Петер Симонишек, Йозефина Пройсс, Флориан Бартоломай, Руфус Бек, Лаура Берлин, Сандра Боргманн, Юстина дель Корте, Вероника Феррес

Семпл

MediaInfo
Общее
Полное имя : S:ФильмыТаймлесс 2 Сапфировая книга. 2014. HDRip. 2.05 (AleksSin).avi
Формат : AVI
Формат/Информация : Audio Video Interleave
Профиль формата : OpenDML
Размер файла : 2,06 Гбайт
Продолжительность : 1 ч. 56 м.
Общий поток : 2535 Кбит/сек
Программа кодирования : VirtualDubModRus 1.5.10.2 (build 2542/release)
Библиотека кодирования : VirtualDubMod build 2542/release

Видео
Идентификатор : 0
Формат : MPEG-4 Visual
Профиль формата : Advanced Simple@L5
Параметр BVOP формата : 1
Параметр QPel формата : Нет
Параметр GMC формата : Без точки перехода
Параметр матрицы формата : Выборочная
Идентификатор кодека : XVID
Идентификатор кодека/Подсказка : XviD
Продолжительность : 1 ч. 56 м.
Битрейт : 1748 Кбит/сек
Ширина : 720 пикс.
Высота : 304 пикс.
Соотношение сторон : 2,35:1
Частота кадров : 24,000 кадр/сек
Цветовое пространство : YUV
Подвыборка цветности : 4:2:0
Битовая глубина : 8 бит
Тип развёртки : Прогрессивная
Метод сжатия : С потерями
Бит/(Пиксели*Кадры) : 0.333
Размер потока : 1,42 Гбайт (69%)
Библиотека кодирования : XviD 73

Аудио #1
Идентификатор : 1
Формат : AC-3
Формат/Информация : Audio Coding 3
Расширение режима : CM (complete main)
Идентификатор кодека : 2000
Продолжительность : 1 ч. 56 м.
Вид битрейта : Постоянный
Битрейт : 384 Кбит/сек
Каналы : 6 каналов
Расположение каналов : Front: L C R, Side: L R, LFE
Частота : 48,0 КГц
Битовая глубина : 16 бит
Метод сжатия : С потерями
Размер потока : 319 Мбайт (15%)
Выравнивание : Разделение по промежуткам
Продолжительность промежутка : 42 мс. (1,00 видеокадр)
Время предзагрузки промежутка : 500 ms

Аудио #2
Идентификатор : 2
Формат : AC-3
Формат/Информация : Audio Coding 3
Расширение режима : CM (complete main)
Идентификатор кодека : 2000
Продолжительность : 1 ч. 56 м.
Вид битрейта : Постоянный
Битрейт : 384 Кбит/сек
Каналы : 6 каналов
Расположение каналов : Front: L C R, Side: L R, LFE
Частота : 48,0 КГц
Битовая глубина : 16 бит
Метод сжатия : С потерями
Размер потока : 319 Мбайт (15%)
Выравнивание : Разделение по промежуткам
Продолжительность промежутка : 42 мс. (1,00 видеокадр)
Время предзагрузки промежутка : 500 ms

Скриншоты

(немецкий)
О фильме:
Приключения юной Гвендолин Шеферд продолжаются. Она начинает все больше узнавать о тайнах мира путешественников во времени. Ей предстоит разгадать больше загадок и научиться быть светской леди для приемов в 18 веке. Гвендолин узнает больше о своей семье, в первую очередь о ее дедушке Лукасе. Также Гвен подозревает, что Гидеон скрывает что-то от нее, возможно какую-то сокровенную страшную тайну… Но с появлением нового, слегка надоедливого друга Ксемериуса, девушке становится легче преодолевать все препятствия на пути.




Видео: 720x304 (2.37:1), 24 fps, XviD build 73 ~1748 kbps avg, 0.34 bit/pixel
Год выхода: 2014
Режиссер: Феликс Фуксштайнер, Катарина Шёде
Продолжительность: 01:56:06
Перевод: Профессиональный (Многоголосый)Аудио 2: 48 kHz, AC3 Dolby Digital, 3/2 (L,C,R,l,r) + LFE ch, ~384.00 kbps avgКодек: AVI (XviD)
[лицензия]

Оригинальное название: Saphirblau
Аудио: 48 kHz, AC3 Dolby Digital, 3/2 (L,C,R,l,r) + LFE ch, ~384.00 kbps avg

Если у вас возникли проблемы с закачкой Таймлесс 2: Сапфировая книга / Saphirblau (2014) HDRip от AleksSin | P | Лицензия, перейдите по ссылке - там вы найдете решение своей проблемы.

Категория: Зарубежные фильмы

 

Скачать Таймлесс 2: Сапфировая книга / Saphirblau (2014) HDRip от AleksSin | P | Лицензия бесплатно без регистрации

 

Информация
Посетители, находящиеся в группе Гости, не могут оставлять комментарии к данной публикации.
 
 
Скачать Таймлесс 2: Сапфировая книга / Saphirblau (2014) HDRip от AleksSin | P | Лицензия бесплатно без регистрацииCopyright © 2019 .