Скачать Крутой (2012) DVB бесплатно без регистрации




DGEKIGAN ОценкаНикто ещё не поставил оценку КатегорияНаши фильмы Раздают1 Качают0 Сидер замечен10-07-2019 9:19:11 (4 минуты назад) Добавлен27-05-2013 13:44:18 (74 месяца назад) Размер2.84 GB (3047905280 Bytes)Аудио: MPEG Audio, 48000 Hz, 1 channels, 192 Кбит/сек
MediaInfo
General
Complete name : C:Крутой.mpg
Format : MPEG-PS
File size : 2.84 GiB
Duration : 1h 25mn
Overall bit rate mode : Variable
Overall bit rate : 4 759 Kbps
Writing library : (c) 1998-2012 Womble Multimedia, Inc. / MPEG Video Wizard DVD 5.0.1.100 (03/2011) / Sep 7 2012

Video
ID : 224 (0xE0)
Format : MPEG Video
Format version : Version 2
Format profile : Main@Main
Format settings, BVOP : Yes
Format settings, Matrix : Custom
Duration : 1h 25mn
Bit rate mode : Variable
Bit rate : 4 472 Kbps
Maximum bit rate : 15.0 Mbps
Width : 720 pixels
Height : 576 pixels
Display aspect ratio : 4:3
Frame rate : 25.000 fps
Standard : PAL
Color space : YUV
Chroma subsampling : 4:2:0
Bit depth : 8 bits
Scan type : Interlaced
Scan order : Top Field First
Compression mode : Lossy
Bits/(Pixel*Frame) : 0.431
Stream size : 2.67 GiB (94%)
Writing library : (c) 1998-2012 Womble Multimedia, Inc. / MPEG Video Wizard DVD 5.0.1.100 (03/2011) / Sep 7 2012

Audio
ID : 192 (0xC0)
Format : MPEG Audio
Format version : Version 1
Format profile : Layer 2
Duration : 1h 25mn
Bit rate mode : Constant
Bit rate : 192 Kbps
Channel(s) : 1 channel
Sampling rate : 48.0 KHz
Compression mode : Lossy
Stream size : 117 MiB (4%)
Скриншоты
ЗалилВидео: MPEG2 Video, 720x576 (4:3), 25 fps, 4472 Kbps, 0.431 bit/pixel
Режиссёр: Максим Демченко

Описание: Каверин, некогда служивший в ОМОНе, начинает работать на себя – он перевозит грузы и никогда не спрашивает заказчика о том, что внутри. Однажды, доставив груз, Каверин видит, что в чемодане, который он вез – связанная девочка. Люди заказчика похитили ее и Каверин, сам не зная о содержимом посылки, доставил девочку главарю банды. За девочку требуют выкуп, саму же ее хотят убить, чтобы избавиться от свидетеля. Среди бандитов – Брыль – бывший сослуживец и враг Каверина. Каверин вступает в схватку с бандитами, ему удается отбить у них девочку, и скрыться. Каверин, преследуемый бандитами, идущими по пятам, начинает поиск родителей девочки.Год выпуска: 2012
Перевод: оригинал
Субтитры: Украинские вшитые

Продолжительность: 01:25:25
СэмплЖанр: Боевик
Качество видео: DVB
Формат видео: MPEG-PS

В ролях: Максим Дрозд, Анна Лутцева, Сергей Гамов, Михаил Сидаш, Михаил Полосухин, Виктор СмирновВыпущено: Триикс Медиа

Если у вас возникли проблемы с закачкой Крутой (2012) DVB, перейдите по ссылке - там вы найдете решение своей проблемы.

Категория: Наши фильмы

 

Скачать Крутой (2012) DVB бесплатно без регистрации

 

Информация
Посетители, находящиеся в группе Гости, не могут оставлять комментарии к данной публикации.
 
 
Скачать Крутой (2012) DVB бесплатно без регистрацииCopyright © 2019 .