Скачать Цепной пёс / Bullet Head (2017) BDRip-AVC от OlLanDGroup | Лицензия бесплатно без регистрации






Видео: 1024x430 (2.40:1), 23,976 fps, x264 ~1 624 kbps avg, 0.154 bit/pixel
В ролях: Эдриан Броуди, Рори Калкин, Антонио Бандерас, Джон Малкович, Александра Дину, Кристина Сеговиа, Ори Феффер, Оуэн Дэвис, Велизар Бинев, Кит Д. Эванс

Жанр: Триллер, драма, криминал

Страна: Болгария, США
Производство: Millennium Media
Rip by:

MediaInfo
Общее
Уникальный идентификатор : 203614352322284159374017014818748498109 (0x992EB2A49F870107B9F58D3D70E400BD)
Полное имя : E:OlLanDGroupBullet.Head.2017.BDRip(AVC).OlLanDGroup.mkv
Формат : Matroska
Версия формата : Version 2
Размер файла : 1,66 Гбайт
Продолжительность : 1 ч. 34 м.
Общий поток : 2521 Кбит/сек
Название фильма : Bullet.Head.2017 #TorpedoUK#
Дата кодирования : UTC 2018-03-17 14:05:55
Программа кодирования : mkvmerge v7.8.0 ('River Man') 32bit built on Apr 3 2015 12:11:22
Библиотека кодирования : libebml v1.3.1 + libmatroska v1.4.2

Видео
Идентификатор : 1
Формат : AVC
Формат/Информация : Advanced Video Codec
Профиль формата : High@L4.1
Параметр CABAC формата : Да
Параметр ReFrames формата : 10 кадров
Идентификатор кодека : V_MPEG4/ISO/AVC
Продолжительность : 1 ч. 34 м.
Битрейт : 1624 Кбит/сек
Ширина : 1024 пикселя
Высота : 430 пикселей
Соотношение сторон : 2,40:1
Режим частоты кадров : Постоянный
Частота кадров : 23,976 (24000/1001) кадра/сек
Цветовое пространство : YUV
Субдискретизация насыщенности : 4:2:0
Битовая глубина : 8 бит
Тип развёртки : Прогрессивная
Бит/(Пиксели*Кадры) : 0.154
Размер потока : 1,04 Гбайт (62%)
Библиотека кодирования : x264 core 146 r2538 121396c
Настройки программы : cabac=1 / ref=10 / deblock=1:-2:-3 / analyse=0x3:0x133 / me=umh / subme=11 / psy=1 / psy_rd=1.00:0.07 / mixed_ref=1 / me_range=48 / chroma_me=1 / trellis=2 / 8x8dct=1 / cqm=0 / deadzone=21,11 / fast_pskip=1 / chroma_qp_offset=-3 / threads=6 / lookahead_threads=1 / sliced_threads=0 / nr=0 / decimate=1 / interlaced=0 / bluray_compat=0 / constrained_intra=0 / bframes=10 / b_pyramid=2 / b_adapt=2 / b_bias=0 / direct=3 / weightb=1 / open_gop=0 / weightp=2 / keyint=240 / keyint_min=23 / scenecut=40 / intra_refresh=0 / rc_lookahead=40 / rc=2pass / mbtree=0 / bitrate=1624 / ratetol=1.0 / qcomp=0.60 / qpmin=0 / qpmax=69 / qpstep=4 / cplxblur=20.0 / qblur=0.5 / vbv_maxrate=50000 / vbv_bufsize=62500 / nal_hrd=none / filler=0 / ip_ratio=1.40 / pb_ratio=1.30 / aq=1:1.00
Язык : English
Default : Да
Forced : Нет

Аудио #1
Идентификатор : 2
Формат : AC-3
Формат/Информация : Audio Coding 3
Расширение режима : CM (complete main)
Параметр Endianness формата : Big
Идентификатор кодека : A_AC3
Продолжительность : 1 ч. 34 м.
Вид битрейта : Постоянный
Битрейт : 448 Кбит/сек
Каналы : 6 каналов
Расположение каналов : Front: L C R, Side: L R, LFE
Частота : 48,0 КГц
Частота кадров : 31,250 кадров/сек (1536 spf)
Битовая глубина : 16 бит
Метод сжатия : С потерями
Размер потока : 302 Мбайт (18%)
Заголовок : Lic
Язык : Russian
Default : Да
Forced : Нет

Аудио #2
Идентификатор : 3
Формат : AC-3
Формат/Информация : Audio Coding 3
Расширение режима : CM (complete main)
Параметр Endianness формата : Big
Идентификатор кодека : A_AC3
Продолжительность : 1 ч. 34 м.
Вид битрейта : Постоянный
Битрейт : 448 Кбит/сек
Каналы : 6 каналов
Расположение каналов : Front: L C R, Side: L R, LFE
Частота : 48,0 КГц
Частота кадров : 31,250 кадров/сек (1536 spf)
Битовая глубина : 16 бит
Метод сжатия : С потерями
Размер потока : 302 Мбайт (18%)
Заголовок : Original
Язык : English
Default : Нет
Forced : Нет

Текст
Идентификатор : 4
Формат : UTF-8
Идентификатор кодека : S_TEXT/UTF8
Идентификатор кодека/Информация : UTF-8 Plain Text
Заголовок : Full
Язык : English
Default : Нет
Forced : Нет

Меню
00:00:00.000 : en:00:00:00.000
00:03:33.213 : en:00:03:33.213
00:08:37.684 : en:00:08:37.684
00:13:22.927 : en:00:13:22.927
00:22:26.136 : en:00:22:26.136
00:29:18.548 : en:00:29:18.548
00:35:30.670 : en:00:35:30.670
00:41:42.041 : en:00:41:42.041
00:49:39.727 : en:00:49:39.727
00:52:54.463 : en:00:52:54.463
00:57:24.566 : en:00:57:24.566
01:01:10.333 : en:01:01:10.333
01:08:26.769 : en:01:08:26.769
01:14:11.280 : en:01:14:11.280
01:22:48.797 : en:01:22:48.797
01:27:07.889 : en:01:27:07.889

Скриншоты



ЗалилАудио #1: 48 kHz, AC3 Dolby Digital, 3/2 (L,C,R,l,r) + LFE ch, ~448.00 kbps avg | RUS (Лицензия)
Аудио кодек: AC3
Видео кодек: MPEG-4 AVC
Аудио #2: 48 kHz, AC3 Dolby Digital, 3/2 (L,C,R,l,r) + LFE ch, ~448.00 kbps avg | ENG

Дата премьеры (РФ): 7 декабря 2017, «MEGOGO Distribution», «Двадцатый Век Фокс СНГ»


Описание: Даже у самого верного дела возможны разные варианты завершения. Матёрые преступники, пытаясь по наводке обчистить полицейский склад, оказываются в ловушке с разъярённым сторожевым псом по кличке Де Ниро. Счастливый финал кажется всё более призрачным…



TorpedoUK Оценка9 из 10 (2 голосов, самая низкая оценка - 8, самая высокая - 10) КатегорияЗарубежные фильмы Раздают0 Качают0 Сидер замечен10-07-2019 7:19:11 (2 часа назад) Добавлен17-03-2018 17:19:47 (16 месяцев назад) Размер1.66 GB (1783190063 Bytes)Релиз от: Перевод: Дублированный | Лицензия
Цепной пёс / Bullet Head
«No reporter can resist a siren»


Субтитры: Английские
Дата премьеры (мир): 7 декабря 2017
Год выпуска: 2017
Продолжительность: 02:04:54

Качество: BDRip-AVC
Реклама: Отсутствует

Режиссёр: Пол Солет
Формат: MKV

Если у вас возникли проблемы с закачкой Цепной пёс / Bullet Head (2017) BDRip-AVC от OlLanDGroup | Лицензия, перейдите по ссылке - там вы найдете решение своей проблемы.

Категория: Зарубежные фильмы

 

Скачать Цепной пёс / Bullet Head (2017) BDRip-AVC от OlLanDGroup | Лицензия бесплатно без регистрации

 

Информация
Посетители, находящиеся в группе Гости, не могут оставлять комментарии к данной публикации.
 
 
Скачать Цепной пёс / Bullet Head (2017) BDRip-AVC от OlLanDGroup | Лицензия бесплатно без регистрацииCopyright © 2019 .