Скачать Bass Clef - A Smile Is A Curve That Straightens Most Things (2006) FLAC бесплатно без регистрации






Продолжительность: 00:47:45
Тип рипа: image+.cue
Треклист:
01 - Cannot Be Straightened
02 - Subwoofer Loveletter
03 - Eight Zero Eight
04 - Quake
05 - Clapton Deep
06 - Thank You For Starting Fires
07 - That's All I Remember About It
08 - Welcome Back To Echo Chamber
09 - Basss & Drumm Make My Heart Sing
10 - Opera
11 - Stokes Croft 5am
12 - Hilda
13 - How I Desire
Лог создания рипа
Exact Audio Copy V0.99 prebeta 4 from 23. January 2008

EAC extraction logfile from 27. November 2011, 12:52

Bass Clef / A Smile Is A Curve That Straightens Most Things

Used drive : PLEXTOR DVDR PX-800A Adapter: 3 ID: 0

Read mode : Secure
Utilize accurate stream : Yes
Defeat audio cache : Yes
Make use of C2 pointers : No

Read offset correction : 48
Overread into Lead-In and Lead-Out : No
Fill up missing offset samples with silence : Yes
Delete leading and trailing silent blocks : No
Null samples used in CRC calculations : Yes
Used interface : Native Win32 interface for Win NT & 2000

Used output format : Internal WAV Routines
Sample format : 44.100 Hz; 16 Bit; Stereo

TOC of the extracted CD

Track | Start | Length | Start sector | End sector
---------------------------------------------------------
1 | 0:00.00 | 4:41.64 | 0 | 21138
2 | 4:41.64 | 4:16.55 | 21139 | 40393
3 | 8:58.44 | 4:06.52 | 40394 | 58895
4 | 13:05.21 | 0:32.45 | 58896 | 61340
5 | 13:37.66 | 6:08.58 | 61341 | 88998
6 | 19:46.49 | 4:50.03 | 88999 | 110751
7 | 24:36.52 | 0:31.41 | 110752 | 113117
8 | 25:08.18 | 5:17.26 | 113118 | 136918
9 | 30:25.44 | 4:29.53 | 136919 | 157146
10 | 34:55.22 | 4:35.20 | 157147 | 177791
11 | 39:30.42 | 0:57.26 | 177792 | 182092
12 | 40:27.68 | 3:59.25 | 182093 | 200042
13 | 44:27.18 | 3:18.43 | 200043 | 214935

Range status and errors

Selected range

Filename D:SSKAINBass Clef - A Smile Is A Curve That Straightens Most Things - 2006Bass Clef - A Smile Is A Curve That Straightens Most Things.wav

Peak level 100.0 %
Range quality 100.0 %
Test CRC 3E05CD69
Copy CRC 3E05CD69
Copy OK

No errors occurred

AccurateRip summary

Track 1 cannot be verified as accurate (confidence 1) [8928028A], AccurateRip returned [D56DE4C9]
Track 2 cannot be verified as accurate (confidence 1) [D0E2D565], AccurateRip returned [A6DF3E08]
Track 3 cannot be verified as accurate (confidence 1) [D47B14CB], AccurateRip returned [97C5D344]
Track 4 cannot be verified as accurate (confidence 1) [7170D413], AccurateRip returned [5EC4609A]
Track 5 cannot be verified as accurate (confidence 1) [05428CCE], AccurateRip returned [3AE3ECEF]
Track 6 cannot be verified as accurate (confidence 1) [6E88397B], AccurateRip returned [24C0D423]
Track 7 cannot be verified as accurate (confidence 1) [191AB618], AccurateRip returned [BCD11B3E]
Track 8 cannot be verified as accurate (confidence 1) [CFB8DD1B], AccurateRip returned [350914FD]
Track 9 cannot be verified as accurate (confidence 1) [753660FC], AccurateRip returned [0862A3FB]
Track 10 cannot be verified as accurate (confidence 1) [9C35C950], AccurateRip returned [513B1678]
Track 11 cannot be verified as accurate (confidence 1) [6CDE1EE8], AccurateRip returned [2D8C0747]
Track 12 cannot be verified as accurate (confidence 1) [4FA5DB4C], AccurateRip returned [E014726B]
Track 13 cannot be verified as accurate (confidence 1) [C30F91A1], AccurateRip returned [C5D55FC9]

No tracks could be verified as accurate
You may have a different pressing from the one(s) in the database

End of status report

ЗалилСтрана-производитель диска: UK
Битрейт аудио: lossless
Страна: UK
Год издания диска: 2006
Портвейнгеноссе ОценкаНикто ещё не поставил оценку КатегорияМузыка Раздают0 Качают1 Сидер замечен12-06-2018 18:19:06 (13 месяца назад) Добавлен23-12-2015 11:26:07 (43 месяца назад) Размер291.09 MB (305234862 Bytes)Издатель (лейбл): Blank Tapes
Номер по каталогу: BLANK003CD
Жанр: dubstep
Аудиокодек: FLAC (*.flac)
Наличие сканов в содержимом раздачи: да

Если у вас возникли проблемы с закачкой Bass Clef - A Smile Is A Curve That Straightens Most Things (2006) FLAC, перейдите по ссылке - там вы найдете решение своей проблемы.

Категория: Музыка

 

Скачать Bass Clef - A Smile Is A Curve That Straightens Most Things (2006) FLAC бесплатно без регистрации

 

Информация
Посетители, находящиеся в группе Гости, не могут оставлять комментарии к данной публикации.
 
 
Скачать Bass Clef - A Smile Is A Curve That Straightens Most Things (2006) FLAC бесплатно без регистрацииCopyright © 2019 .