Скачать Свора / The Breed (2006) BDRip-AVC от ExKinoRay | D бесплатно без регистрации






Формат: MKV
Информация о фильме:
sany771 Оценка9 из 10 (2 голосов, самая низкая оценка - 8, самая высокая - 10) КатегорияЗарубежные фильмы Раздают2 Качают0 Сидер замечен10-07-2019 7:19:11 (4 минуты назад) Добавлен25-10-2017 23:11:26 (21 месяц назад) Размер746.45 MB (782711329 Bytes)Аудио: AAC-LC, 2 ch, ~ 76 Кбит/с
Видео: MPEG-4 AVC, 736x412, ~ 1070 Кбит/с
Название: Свора
Перевод: Профессиональный (полное дублирование)

В ролях: Мишель Родригес, Оливер Хадсон, Тэрин Мэннинг, Эрик Лайвли, Хилл Харпер

Жанр: ужасы, триллер
Релиз от: ЗалилСубтитры: Русские

MIОбщее
Уникальный идентификатор : 195411744520212983497767237150712330475 (0x9302EEDAC4BD8657A0F3AF3A0834F8EB)
Полное имя : D:MOVIESThe Breed.2006.ExKinoRay.mkv
Формат : Matroska
Версия формата : Version 4 / Version 2
Размер файла : 746 Мбайт
Продолжительность : 1 ч. 30 м.
Общий поток : 1148 Кбит/сек
Дата кодирования : UTC 2017-10-25 19:58:57
Программа кодирования : mkvmerge v15.0.0 ('Duel with the Devil') 64-bit
Библиотека кодирования : libebml v1.3.5 + libmatroska v1.4.5

Видео
Идентификатор : 1
Формат : AVC
Формат/Информация : Advanced Video Codec
Профиль формата : High@L4.1
Параметр CABAC формата : Да
Параметр RefFrames формата : 10 кадров
Идентификатор кодека : V_MPEG4/ISO/AVC
Продолжительность : 1 ч. 30 м.
Битрейт : 1070 Кбит/сек
Ширина : 736 пикселей
Высота : 412 пикселей
Соотношение сторон : 16:9
Режим частоты кадров : Постоянный
Частота кадров : 23,976 (24000/1001) кадра/сек
Цветовое пространство : YUV
Субдискретизация насыщенности : 4:2:0
Битовая глубина : 8 бит
Тип развёртки : Прогрессивная
Бит/(Пиксели*Кадры) : 0.147
Размер потока : 696 Мбайт (93%)
Библиотека кодирования : x264 core 152 r2851kMod ba24899
Настройки программы : cabac=1 / ref=10 / deblock=1:-2:-1 / analyse=0x3:0x133 / me=umh / subme=11 / psy=1 / fade_compensate=0.00 / psy_rd=1.00:0.05 / mixed_ref=1 / me_range=32 / chroma_me=1 / trellis=2 / 8x8dct=1 / cqm=0 / deadzone=21,11 / fast_pskip=0 / chroma_qp_offset=-3 / threads=6 / lookahead_threads=1 / sliced_threads=0 / nr=0 / decimate=0 / interlaced=0 / bluray_compat=0 / constrained_intra=0 / bframes=10 / b_pyramid=2 / b_adapt=2 / b_bias=0 / direct=3 / weightb=1 / open_gop=0 / weightp=2 / keyint=240 / keyint_min=23 / scenecut=40 / intra_refresh=0 / rc_lookahead=40 / rc=2pass / mbtree=1 / bitrate=1070 / ratetol=1.0 / qcomp=0.60 / qpmin=0 / qpmax=69 / qpstep=4 / cplxblur=20.0 / qblur=0.5 / vbv_maxrate=50000 / vbv_bufsize=62500 / nal_hrd=none / filler=0 / ip_ratio=1.40 / aq=3:1.00
Default : Да
Forced : Нет

Аудио
Идентификатор : 2
Формат : AAC
Формат/Информация : Advanced Audio Codec
Профиль формата : LC
Идентификатор кодека : A_AAC
Продолжительность : 1 ч. 30 м.
Битрейт : 76,0 Кбит/сек
Каналы : 2 канала
Расположение каналов : Front: L R
Частота : 48,0 КГц
Частота кадров : 46,875 кадров/сек (1024 SPF)
Метод сжатия : С потерями
Задержка видео : 9 мс.
Размер потока : 49,4 Мбайт (7%)
Default : Да
Forced : Нет

Текст
Идентификатор : 3
Формат : UTF-8
Идентификатор кодека : S_TEXT/UTF8
Идентификатор кодека/Информация : UTF-8 Plain Text
Продолжительность : 1 ч. 24 м.
Битрейт : 71 бит/сек
ElementCount : 845
Размер потока : 44,2 Кбайт (0%)
Заголовок : Русские
Язык : Russian
Default : Нет
Forced : Нет

Меню
00:00:00.000 : en:Chapter 01
00:05:50.725 : en:Chapter 02
00:09:46.961 : en:Chapter 03
00:15:21.712 : en:Chapter 04
00:19:58.697 : en:Chapter 05
00:25:07.339 : en:Chapter 06
00:29:09.205 : en:Chapter 07
00:35:41.764 : en:Chapter 08
00:42:47.523 : en:Chapter 09
00:47:21.213 : en:Chapter 10
00:52:25.100 : en:Chapter 11
00:57:11.219 : en:Chapter 12
01:04:38.416 : en:Chapter 13
01:12:55.621 : en:Chapter 14
01:18:43.135 : en:Chapter 15
01:23:44.769 : en:Chapter 16
Скриншоты



Оригинальное название: The Breed
Год выхода: 2006
О фильме :
Увлекательная поездка на заброшенный остров обернулась настоящим кошмаром для веселой компании подростков. Пребывая в уверенности, что вокруг никого нет, друзья решают воспользоваться всеми преимуществами уединения и оторваться по полной программе! Неожиданно они подвергаются нападению диких собак, обосновавшихся на этом острове. Очень скоро, загнанные в угол подростки понимают, что имеют дело не с простыми собаками. Обитающие на острове твари, с измененным генетическим кодом, обладают необыкновенным, почти сверхъестественным умом и неутолимым голодом, а укусы их несут необратимые изменения в организме человека…



Выпущено: США, Германия, ЮАР
Продолжительность: 01:30:54
Качество: BDRip-AVC (Blu-ray Disc 1080p)
Режиссер: Николас Мастандреа

Если у вас возникли проблемы с закачкой Свора / The Breed (2006) BDRip-AVC от ExKinoRay | D, перейдите по ссылке - там вы найдете решение своей проблемы.

Категория: Зарубежные фильмы

 

Скачать Свора / The Breed (2006) BDRip-AVC от ExKinoRay | D бесплатно без регистрации

 

Информация
Посетители, находящиеся в группе Гости, не могут оставлять комментарии к данной публикации.
 
 
Скачать Свора / The Breed (2006) BDRip-AVC от ExKinoRay | D бесплатно без регистрацииCopyright © 2019 .