Скачать Nat Geo Wild: Приручить дракона / Touching the Dragon (2012) HDTVRip от Leo.pard | D бесплатно без регистрации




Формат: AVI
Жанр: Документальный
Аудио: MP2, 192 Kbps, 48 KHz, 2 channels

Исходник: HDTV 1080iПродолжительность: 00:44:59
Kачество: HDTVRip
Приручить дракона
Touching the Dragon




Leo.pard ОценкаНикто ещё не поставил оценку КатегорияНаучно-популярные фильмы Раздают0 Качают1 Сидер замечен08-12-2017 16:19:06 (19 месяцев назад) Добавлен19-09-2013 18:49:49 (71 месяц назад) Размер700.45 MB (734472192 Bytes)Русские субтитры: нет

Сэмпл: http://multi-up.com/904815

MediaInfo
General
Complete name : D:Priruchit'.drakona.2012.HDTVRip.avi
Format : AVI
Format/Info : Audio Video Interleave
File size : 700 MiB
Duration : 44mn 59s
Overall bit rate : 2 177 Kbps
Writing application : VirtualDubMod 1.5.10.3 | www.virtualdub-fr.org || (build 2550/release)
Writing library : VirtualDubMod build 2550/release

Video
ID : 0
Format : MPEG-4 Visual
Format profile : Advanced Simple@L5
Format settings, BVOP : 1
Format settings, QPel : No
Format settings, GMC : No warppoints
Format settings, Matrix : Custom
Codec ID : XVID
Codec ID/Hint : XviD
Duration : 44mn 59s
Bit rate : 1 975 Kbps
Width : 720 pixels
Height : 400 pixels
Display aspect ratio : 16:9
Frame rate : 25.000 fps
Color space : YUV
Chroma subsampling : 4:2:0
Bit depth : 8 bits
Scan type : Progressive
Compression mode : Lossy
Bits/(Pixel*Frame) : 0.274
Stream size : 636 MiB (91%)
Writing library : XviD 73

Audio
ID : 1
Format : MPEG Audio
Format version : Version 1
Format profile : Layer 2
Codec ID : 50
Duration : 44mn 59s
Bit rate mode : Constant
Bit rate : 192 Kbps
Channel(s) : 2 channels
Sampling rate : 48.0 KHz
Compression mode : Lossy
Stream size : 61.8 MiB (9%)
Alignment : Aligned on interleaves
Interleave, duration : 40 ms (1.00 video frame)
Interleave, preload duration : 504 ms


Скриншоты




ЗалилОписание: Роджер Хоррокс расследует историю "крокодильего шамана", который может без опасности для жизни плавать и ездить на спине крокодила.

A simple thought took photojournalist Roger Horrocks halfway around the world to Costa Rica on a mission to find Chito, a man many referred to as the crocodile shaman. Many years ago, Chito nursed an injured crocodile, which he calls Pocho, back to health. Since then, the two formed an unthinkable bond. Touching the Dragon examines this astonishing relationship between the earth's most ancient predator and a unique man, one that defies the boundaries of the natural world.

Автор рипа: Leo.pard
Перевод: Профессиональный (дублированный) | Игорь Тарадайкин / АРК·ТВ
Интервью и комментарии - Профессиональный (одноголосый закадровый)
Режиссеры: Крейг Фостер / Craig Foster, Дэймон Фостер / Damon Foster

Видео: XviD, 720x400 (16:9), 1975 Kbps, 25 fps
Год выпуска: 2012
Страна: США
Спасибо LeXa 84!

Если у вас возникли проблемы с закачкой Nat Geo Wild: Приручить дракона / Touching the Dragon (2012) HDTVRip от Leo.pard | D, перейдите по ссылке - там вы найдете решение своей проблемы.

Категория: Научно-популярные фильмы

 

Скачать Nat Geo Wild: Приручить дракона / Touching the Dragon (2012) HDTVRip от Leo.pard | D бесплатно без регистрации

 

Информация
Посетители, находящиеся в группе Гости, не могут оставлять комментарии к данной публикации.
 
 
Скачать Nat Geo Wild: Приручить дракона / Touching the Dragon (2012) HDTVRip от Leo.pard | D бесплатно без регистрацииCopyright © 2019 .