Скачать Атлантида Русского Севера (2015) BDRip от FilmRus бесплатно без регистрации






Информация о фильме
Кодек: XviD
Жанр: Документальный
fieldipersovy Оценка5 из 10 (4 голосов, самая низкая оценка - 1, самая высокая - 10) КатегорияНаучно-популярные фильмы Раздают3 Качают0 Сидер замечен10-07-2019 3:19:11 (4 минуты назад) Добавлен09-01-2016 16:20:40 (43 месяца назад) Размер586.72 MB (615217238 Bytes)Звук: Русский (AC3, 2 ch, 192 Кбит/с)

Инфо-файл:General
Complete name :Атлантида Русского Севера (2015) BDRip.avi
Format : AVI
Format/Info : Audio Video Interleave
File size : 587 MiB
Duration : 1h 14mn
Overall bit rate : 1 108 Kbps
Writing application : Lavf56.25.101

Video
ID : 0
Format : MPEG-4 Visual
Format profile : Advanced Simple@L5
Format settings, BVOP : 1
Format settings, QPel : No
Format settings, GMC : No warppoints
Format settings, Matrix : Default (H.263)
Codec ID : XVID
Codec ID/Hint : XviD
Duration : 1h 14mn
Bit rate : 901 Kbps
Width : 720 pixels
Height : 408 pixels
Display aspect ratio : 16:9
Frame rate : 24.000 fps
Color space : YUV
Chroma subsampling : 4:2:0
Bit depth : 8 bits
Scan type : Progressive
Compression mode : Lossy
Bits/(Pixel*Frame) : 0.064
Stream size : 477 MiB (81%)
Title : Alias Data Handler
Writing library : XviD 67

Audio
ID : 1
Format : AC-3
Format/Info : Audio Coding 3
Mode extension : CM (complete main)
Format settings, Endianness : Big
Codec ID : 2000
Duration : 1h 14mn
Bit rate mode : Constant
Bit rate : 192 Kbps
Channel(s) : 2 channels
Channel positions : Front: L R
Sampling rate : 48.0 KHz
Bit depth : 16 bits
Compression mode : Lossy
Stream size : 102 MiB (17%)
Alignment : Aligned on interleaves
Interleave, duration : 32 ms (1.54 video frames)
Title : Alias Data HandlerСкриншоты

Качество: BDRip
Видео: 901 Кбит/с, 720x408 (1.76:1), 24.000 fps
О фильме:
Фильм рассказывает о Русском Севере — территории уникального деревянного зодчества и одном из немногих в стране мест, где русский человек может осознать истоки своей культуры и духовного развития. Именно здесь нашлись люди, готовые возрождать традиционный сельский уклад жизни вопреки глобализации и государственной политике урбанизации. В абсолютно каждой стране присутствуют свои традиции, которые в наше время начали терять свою актуальность. Но в каждой стране есть то, где не забывают о традициях и канонах, которые заложили их предки. Новый фильм под названием «Атлантида Русского Севера» расскажет зрителям о таком месте в России. Это место Русский Север- место, где традиции занимают одно из первых мест. В этом месте русский человек почувствует всю силу традиций, он обретет чувство былого времени, почувствовать всю русскую культуру. Именно на Русском Севере есть люди, которые хотят возродить эти традиции во всей стране. Смотрите новый фильм под названием «Атлантида Русского Севера», он очень увлекательный и интересный, так же с помощью этого замечательного фильма зрители смогут расширить свои знания о давней культуре своей страны, которая, к сожалению, начала терять свою актуальность.

Страна: Россия
Год выхода: 2015
Режиссер: Софья Горленко

Релиз от: исходник BDRip 1080p ЗалилНазвание: Атлантида Русского Севера
Продолжительность: 01:14:00



Если у вас возникли проблемы с закачкой Атлантида Русского Севера (2015) BDRip от FilmRus, перейдите по ссылке - там вы найдете решение своей проблемы.

Категория: Научно-популярные фильмы

 

Скачать Атлантида Русского Севера (2015) BDRip от FilmRus бесплатно без регистрации

 

Информация
Посетители, находящиеся в группе Гости, не могут оставлять комментарии к данной публикации.
 
 
Скачать Атлантида Русского Севера (2015) BDRip от FilmRus бесплатно без регистрацииCopyright © 2019 .