Скачать Координаты неизвестны (1957) DVDRip от New-Team бесплатно без регистрации





Формат видео: AVI

Режиссер: Михаил Винярский

AVPStudio Оценка10 из 10 (1 голосов, самая низкая оценка - 10, самая высокая - 10) КатегорияНаши фильмы Раздают2 Качают0 Сидер замечен09-07-2019 19:19:13 (58 минут назад) Добавлен01-04-2019 16:01:48 (3 месяца назад) Размер1.09 GB (1168510976 Bytes)DVD9 R5
Страна: СССР
Не требуется
Описание:
Два танкера "Урал" и "Кремль" с грузом авиационного бензина совершали рейс из Туапсе на Балтику, в Ленинград. Внезапно оба мирных судна были обстреляны фашистскими бомбардировщиками. Так для них началась война. Охваченный пламенем, погиб танкер "Урал". Из его экипажа на борт "Кремля" был подобран только радист Долинский. Несмотря на тяжелую обстановку, капитан "Кремля" Чалый и помполит Крутов решают доставить ценный груз к родным берегам.



Cубтитры: нет
Раздача от:
MediaInfo
Общее
Полное имя : Koordinaty.neizvestny.1957.DVDRip_[New-team]_by_AVP_Studio.avi
Формат : AVI
Формат/Информация : Audio Video Interleave
Размер файла : 1,09 Гбайт
Продолжительность : 1 ч. 27 м.
Общий поток : 1781 Кбит/сек
Программа кодирования : VirtualDubMod 1.5.10.3 | www.virtualdub-fr.org || (build 2550/release)
Библиотека кодирования : VirtualDubMod build 2550/release

Видео
Идентификатор : 0
Формат : MPEG-4 Visual
Профиль формата : Advanced Simple@L5
Параметр BVOP формата : 1
Параметр QPel формата : Нет
Параметр GMC формата : Без точки перехода
Параметр матрицы формата : Выборочная
Идентификатор кодека : XVID
Идентификатор кодека/Подсказка : XviD
Продолжительность : 1 ч. 27 м.
Битрейт : 1579 Кбит/сек
Ширина : 688 пикселей
Высота : 512 пикселей
Соотношение сторон : 4:3
Частота кадров : 25,000 кадров/сек
Цветовое пространство : YUV
Субдискретизация насыщенности : 4:2:0
Битовая глубина : 8 бит
Тип развёртки : Прогрессивная
Метод сжатия : С потерями
Бит/(Пиксели*Кадры) : 0.179
Размер потока : 988 Мбайт (89%)
Библиотека кодирования : XviD 73

Аудио
Идентификатор : 1
Формат : AC-3
Формат/Информация : Audio Coding 3
Параметр Endianness формата : Big
Идентификатор кодека : 2000
Продолжительность : 1 ч. 27 м.
Вид битрейта : Постоянный
Битрейт : 192 Кбит/сек
Каналы : 2 канала
Расположение каналов : Front: L R
Частота : 48,0 КГц
Частота кадров : 31,250 кадров/сек (1536 spf)
Битовая глубина : 16 бит
Метод сжатия : С потерями
Размер потока : 120 Мбайт (11%)
Выравнивание : Разделение по промежуткам
Продолжительность промежутка : 40 мс. (1,00 видеокадр)
Время предзагрузки промежутка : 500 мс

Скриншоты

ЗалилПеревод:Продолжительность: 01:27:29

Качество видео:Оригинальная аудиодорожка: русский

Жанр: военный
Источник:Аудио: 48 kHz, Dolby Digital AC3 2.0, 192 kbps

Год выпуска: 1957
Производство: Одесская киностудия

Об актёрах подробней

DVDRip
В ролях:
Олег Жаков, Леонид Галлис, Эдуард Бредун, Юрий Прокопович, Надежда Чередниченко, Николай Яковченко, Евгений Котов, Николай Ключнев, Олег Мокшанцев, Степан Крылов, Виталий Кравченко...
Видео: 688x512 (4:3), 25 fps, XviD ~ 1579 kbps avg, 0.179 bit/pixel

Если у вас возникли проблемы с закачкой Координаты неизвестны (1957) DVDRip от New-Team, перейдите по ссылке - там вы найдете решение своей проблемы.

Категория: Наши фильмы

 

Скачать Координаты неизвестны (1957) DVDRip от New-Team бесплатно без регистрации

 

Информация
Посетители, находящиеся в группе Гости, не могут оставлять комментарии к данной публикации.
 
 
Скачать Координаты неизвестны (1957) DVDRip от New-Team бесплатно без регистрацииCopyright © 2019 .