Скачать С днем рождения, Лола! (2001) DVD9 бесплатно без регистрации








Информация о фильме
Страна: Россия
Жанр: Комедия
Видео: PAL 4:3 (720x576) VBR
Студия: Алхимия-Фильм
Год выхода: 2001
Язык: Русский
О фильме: Героиня фильма Лола готовится к празднованию дня рождения. Она помнит об обещанном ей сюрпризе и поэтому впускает к себе в квартиру незнакомцев с цветами и тортом. «Гостей» зовут Бим и Бом, они - киллеры. Квартира девушки выбрана ими для покушения на президента, кортеж которого следует под ее окнами. Лола становится заложницей и… основным препятствием осуществления плана покушения.



Качество: DVD-9
Режиссер: Владимир Щегольков
Оригинальное название: С днем рождения, Лола!
В ролях: Екатерина Гусева, Владимир Симонов, Сергей Астахов, Роман Фокин

YArl ОценкаНикто ещё не поставил оценку КатегорияНаши фильмы Раздают0 Качают1 Сидер замечен29-03-2019 10:19:07 (3 месяца назад) Добавлен29-06-2014 11:25:32 (61 месяц назад) Размер6.84 GB (7343900672 Bytes)Субтитры: Русские, английские, немецкие, французские, испанские

Продолжительность: 01:20:57
Кодек: MPEG-2
Звук: Русский (Dolby AC3, 6 ch)

МенюDVDInfoVTS_01 :
Play Length: 00:00:24
Video: PAL 4:3 (720x576) VBR

VTS_02 :
Play Length: 00:00:20
Video: PAL 4:3 (720x576) VBR
Audio:
English (Dolby AC3, 6 ch)

VTS_03 :
Play Length: 00:08:22
Video: PAL 4:3 (720x576) VBR
Audio:
English (Dolby AC3, 4 ch)
Subtitles:
Deutsch
Francais
Espanol
English

VTS_04 :
Play Length: 00:08:05
Video: PAL 4:3 (720x576) VBR
Audio:
English (Dolby AC3, 4 ch)
Subtitles:
Deutsch
Francais
Espanol
English

VTS_05 :
Play Length: 00:04:54
Video: PAL 4:3 (720x576) VBR
Audio:
English (Dolby AC3, 4 ch)
Subtitles:
Deutsch
Francais
Espanol
English

VTS_06 :
Play Length: 01:20:57
Video: PAL 4:3 (720x576) VBR
Audio:
Russian (Dolby AC3, 6 ch)
Subtitles:
Deutsch
Francais
Espanol
English
Russian

VTS_07 :
Play Length: 00:01:26
Video: PAL 4:3 (720x576) VBR
Audio:
English (Dolby AC3, 6 ch)

VTS_08 :
Play Length: 00:01:19
Video: PAL 4:3 (720x576) VBR
Audio:
English (Dolby AC3, 6 ch)

VTS_09 :
Play Length: 00:00:44
Video: PAL 4:3 (720x576) VBR
Audio:
English (Dolby AC3, 6 ch)

VTS_10 :
Play Length: 00:11:08
Video: PAL 4:3 (720x576) VBR
Audio:
English (Dolby AC3, 4 ch)

VTS_11 :
Play Length: 00:02:41
Video: PAL 4:3 (720x576) VBR
Audio:
English (Dolby AC3, 4 ch)

Menu Video:
PAL 4:3 (720x576) VBR
Menu Subtitles:
Not specified
Menu English Language Unit :
Root Menu


MediaInfo Общее
Полное имя : D:1АААS_DNEM_ROJDENIYA_LOLAVIDEO_TSVTS_06_1.VOB
Формат : MPEG-PS
Размер файла : 1024 Мбайт
Продолжительность : 16 м.
Общий поток : 8670 Кбит/сек

Видео
Идентификатор : 224 (0xE0)
Формат : MPEG Video
Версия формата : Version 2
Профиль формата : Main@Main
Параметр BVOP формата : Да
Параметр матрицы формата : Выборочная
Параметр GOP формата : M=2, N=4
Продолжительность : 16 м.
Битрейт : 8000 Кбит/сек
Ширина : 720 пикселей
Высота : 576 пикселей
Соотношение сторон : 4:3
Частота кадров : 25,000 кадров/сек
Стандарт вещания : PAL
Цветовое пространство : YUV
Субдискретизация насыщенности : 4:2:0
Битовая глубина : 8 бит
Тип развёртки : Чересстрочная
Порядок развёртки : Верхнее поле первое
Метод сжатия : С потерями
Бит/(Пиксели*Кадры) : 0.772
TimeCode_FirstFrame : 00:01:00:00
TimeCode_Source : Group of pictures header
Размер потока : 951 Мбайт (93%)

Аудио
Идентификатор : 189 (0xBD)-128 (0x80)
Формат : AC-3
Формат/Информация : Audio Coding 3
Расширение режима : CM (complete main)
Параметр Endianness формата : Big
Режим смешивания : DVD-Video
Продолжительность : 16 м.
Вид битрейта : Постоянный
Битрейт : 448 Кбит/сек
Каналы : 6 каналов
Расположение каналов : Front: L C R, Side: L R, LFE
Частота : 48,0 КГц
Битовая глубина : 16 бит
Метод сжатия : С потерями
Задержка видео : -40 мс.
Размер потока : 52,9 Мбайт (5%)

Текст #1
Идентификатор : 189 (0xBD)-32 (0x20)
Формат : RLE
Формат/Информация : Run-length encoding
Режим смешивания : DVD-Video

Текст #2
Идентификатор : 189 (0xBD)-33 (0x21)
Формат : RLE
Формат/Информация : Run-length encoding
Режим смешивания : DVD-Video

Текст #3
Идентификатор : 189 (0xBD)-34 (0x22)
Формат : RLE
Формат/Информация : Run-length encoding
Режим смешивания : DVD-Video

Текст #4
Идентификатор : 189 (0xBD)-35 (0x23)
Формат : RLE
Формат/Информация : Run-length encoding
Режим смешивания : DVD-Video

Текст #5
Идентификатор : 189 (0xBD)-36 (0x24)
Формат : RLE
Формат/Информация : Run-length encoding
Режим смешивания : DVD-Video

Меню


Скриншоты Залил

Если у вас возникли проблемы с закачкой С днем рождения, Лола! (2001) DVD9, перейдите по ссылке - там вы найдете решение своей проблемы.

Категория: Наши фильмы

 

Скачать С днем рождения, Лола! (2001) DVD9 бесплатно без регистрации

 

Информация
Посетители, находящиеся в группе Гости, не могут оставлять комментарии к данной публикации.
 
 
Скачать С днем рождения, Лола! (2001) DVD9 бесплатно без регистрацииCopyright © 2019 .