Скачать Пандорум / Pandorum (2009) BDRip 1080p | Open Matte | D, A бесплатно без регистрации






Информация о фильме
Аудио 1:DTS, 48.0 KHz, 6 ch, 1 510 Kbps, CBR (Russian) - Дублированный
Аудио 2:DTS, 48.0 KHz, 6 ch, 1 510 Kbps, CBR (Russian) - Авторский - Ю.Немахов
Аудио 3:DTS, 48.0 KHz, 6 ch, 1 510 Kbps, CBR (English)
Продолжительность: 01:47:50
Видео: AVC, 1920x1080 (16:9), 24.000 fps, 12.4 Mbps (0.250 bit/pixel)
Формат: MPEG4 Video (H264)
В ролях: Деннис Куэйд, Бен Фостер, Кэм Жиганде, Антье Трауэ, Кунг Ле, Эдди Роус, Норман Ридус, Андре Хеннике, Фридерике Кемптер, Нильс-Бруно Шмидт

О фильме:
В безднах космоса движется звездолет. Два члена команды, пробудившиеся от гиперсна, оказываются в сложной ситуации: оборудование не работает, вспомнить они ничего не могут. Какова была их миссия? Сколько времени прошло? Где они? Кто они? На все эти вопросы у них нет ответов. К тому же, на корабле обнаруживаются чужие — злобные воины, которые крушат все на своем пути.
У космических путешественников очень мало времени. Теперь для них собственные жизни — не самое главное, ибо только от них двоих, возможно, зависит спасение человечества. Нужно любой ценой восстановить управление кораблем, пока загадочный Пандорум не взял власть в свои руки.

Страна: Германия, Великобритания
Оригинальное название: Pandorum
Название: Пандорум
Субтитры: Русские, Английские

MIGeneral
Unique ID : 236278890487900926357117066635496152008 (0xB1C1A8B6F55BA1DD92604905A9005BC8)
Complete name : D:3.ТоррентыPandorum.2009.H264.BDRip.1080p.mkv
Format : Matroska
Format version : Version 2
File size : 12.8 GiB
Duration : 1h 47mn
Overall bit rate : 16.9 Mbps
Movie name : Pandorum.2009.BDRip.H.264.en.ru1080p
Encoded date : UTC 2017-02-14 13:30:22
Writing application : mkvmerge v7.7.0 ('Six Voices') 64bit built on Feb 28 2015 23:39:33
Writing library : libebml v1.3.1 + libmatroska v1.4.2

Video
ID : 1
Format : AVC
Format/Info : Advanced Video Codec
Format profile : High@L4.1
Format settings, CABAC : Yes
Format settings, ReFrames : 4 frames
Codec ID : V_MPEG4/ISO/AVC
Duration : 1h 47mn
Bit rate : 12.4 Mbps
Width : 1 920 pixels
Height : 1 080 pixels
Display aspect ratio : 16:9
Frame rate mode : Constant
Frame rate : 24.000 fps
Color space : YUV
Chroma subsampling : 4:2:0
Bit depth : 8 bits
Scan type : Progressive
Bits/(Pixel*Frame) : 0.250
Stream size : 9.11 GiB (71%)
Title : Pandorum.2009.BDRip.H.264.en.ru1080p.batonchik
Writing library : x264 core 148 r2638 7599210
Encoding settings : cabac=1 / ref=4 / deblock=1:-3:-3 / analyse=0x3:0x133 / me=umh / subme=11 / psy=1 / psy_rd=1.00:0.25 / mixed_ref=1 / me_range=48 / chroma_me=1 / trellis=2 / 8x8dct=1 / cqm=0 / deadzone=6,6 / fast_pskip=0 / chroma_qp_offset=-4 / threads=12 / lookahead_threads=2 / sliced_threads=0 / nr=0 / decimate=0 / interlaced=0 / bluray_compat=0 / constrained_intra=0 / bframes=8 / b_pyramid=2 / b_adapt=2 / b_bias=0 / direct=1 / weightb=1 / open_gop=0 / weightp=2 / keyint=250 / keyint_min=23 / scenecut=40 / intra_refresh=0 / rc_lookahead=40 / rc=2pass / mbtree=1 / bitrate=12438 / ratetol=1.0 / qcomp=0.70 / qpmin=0 / qpmax=69 / qpstep=4 / cplxblur=20.0 / qblur=0.5 / vbv_maxrate=50000 / vbv_bufsize=62500 / nal_hrd=none / filler=0 / ip_ratio=1.10 / aq=1:0.70
Language : English
Default : Yes
Forced : No

Audio #1
ID : 2
Format : DTS
Format/Info : Digital Theater Systems
Mode : 16
Format settings, Endianness : Big
Codec ID : A_DTS
Duration : 1h 47mn
Bit rate mode : Constant
Bit rate : 1 510 Kbps
Channel(s) : 6 channels
Channel positions : Front: L C R, Side: L R, LFE
Sampling rate : 48.0 KHz
Bit depth : 24 bits
Compression mode : Lossy
Stream size : 1.14 GiB (9%)
Title : DUB (S.R.I.)
Language : Russian
Default : Yes
Forced : No

Audio #2
ID : 3
Format : DTS
Format/Info : Digital Theater Systems
Mode : 16
Format settings, Endianness : Big
Codec ID : A_DTS
Duration : 1h 47mn
Bit rate mode : Constant
Bit rate : 1 509 Kbps
Channel(s) : 6 channels
Channel positions : Front: L C R, Side: L R, LFE
Sampling rate : 48.0 KHz
Bit depth : 16 bits
Compression mode : Lossy
Stream size : 1.14 GiB (9%)
Title : AVO (Nemahov)
Language : Russian
Default : No
Forced : No

Audio #3
ID : 4
Format : DTS
Format/Info : Digital Theater Systems
Mode : 16
Format settings, Endianness : Big
Codec ID : A_DTS
Duration : 1h 47mn
Bit rate mode : Constant
Bit rate : 1 509 Kbps
Channel(s) : 6 channels
Channel positions : Front: L C R, Side: L R, LFE
Sampling rate : 48.0 KHz
Bit depth : 24 bits
Compression mode : Lossy
Stream size : 1.14 GiB (9%)
Language : English
Default : No
Forced : No

Text #1
ID : 5
Format : UTF-8
Codec ID : S_TEXT/UTF8
Codec ID/Info : UTF-8 Plain Text
Language : Russian
Default : No
Forced : No

Text #2
ID : 6
Format : UTF-8
Codec ID : S_TEXT/UTF8
Codec ID/Info : UTF-8 Plain Text
Language : English
Default : No
Forced : No

Menu
00:00:00.000 : en:Chapter 01
00:03:14.041 : en:Chapter 02
00:13:48.416 : en:Chapter 03
00:23:32.708 : en:Chapter 04
00:35:16.208 : en:Chapter 05
00:45:18.125 : en:Chapter 06
00:53:42.083 : en:Chapter 07
01:00:16.541 : en:Chapter 08
01:13:05.541 : en:Chapter 09
01:27:00.458 : en:Chapter 10Скриншоты ЗалилГод выхода: 2009
Режиссер: Кристиан Альварт
vitalikmd ОценкаНикто ещё не поставил оценку КатегорияЗарубежные фильмы Раздают1 Качают0 Сидер замечен10-07-2019 0:19:12 (4 минуты назад) Добавлен18-02-2017 16:47:14 (29 месяцев назад) Размер12.77 GB (13716578759 Bytes)Open matte — способ съёмки широкоэкранных фильмов, при котором на киноплёнке экспонируется кадр большей высоты, чем используется для конечного изображения на экране



Жанр: Боевик, ужасы, фантастика
Качество: BDRip (1080p) (Pandorum 2009 1080p POL Blu-ray AVC DTS-HD MA 5.1)
Перевод: Дублированный, авторский - Ю.Немахов

Если у вас возникли проблемы с закачкой Пандорум / Pandorum (2009) BDRip 1080p | Open Matte | D, A, перейдите по ссылке - там вы найдете решение своей проблемы.

Категория: Зарубежные фильмы

 

Скачать Пандорум / Pandorum (2009) BDRip 1080p | Open Matte | D, A бесплатно без регистрации

 

Информация
Посетители, находящиеся в группе Гости, не могут оставлять комментарии к данной публикации.
 
 
Скачать Пандорум / Pandorum (2009) BDRip 1080p | Open Matte | D, A бесплатно без регистрацииCopyright © 2019 .