Скачать Голодные Z / Les affames (2017) BDRip 720p от селезень | iTunes бесплатно без регистрации






Информация о фильме
Качество: BDRip 720p
Перевод: Дублированный | iTunes

Звук:
Жанр: Ужасы, фантастика, драма
В ролях: Марк-Андре Гронден, Монья Шокри, Мишлен Ланкто, Мари-Джинетт Гуай, Бриджитт Пупар, Эдуар Трамбле-Гренье, Люк Пру, Дидье Люсьен, Робер Бруйетт



Страна: Канада
О фильме: В небольшой деревушке неподалеку от Квебека все изменилось. Местные жители уже не те, что раньше: их тела разлагаются, а сами они стали интересоваться исключительно свежей плотью.

Год выхода: 2017
Название: Голодные Z
FRE |



MIGeneral
Unique ID : 244420868105273755173135294916745479226 (0xB7E1BF344B7F212E1E58684715FBC43A)
Complete name : D:Video111Les.Affamés.2017.BDRip.720p.seleZen.mkv
Format : Matroska
Format version : Version 4
File size : 2.86 GiB
Duration : 1 h 43 min
Overall bit rate : 3 971 kb/s
Movie name : Les Affamés 2017
Encoded date : UTC 2019-04-14 16:56:29
Writing application : mkvmerge v32.0.0 ('Astral Progressions') 64-bit
Writing library : libebml v1.3.7 + libmatroska v1.5.0

Video
ID : 1
Format : AVC
Format/Info : Advanced Video Codec
Format profile : High@L4.1
Format settings : CABAC / 9 Ref Frames
Format settings, CABAC : Yes
Format settings, ReFrames : 9 frames
Codec ID : V_MPEG4/ISO/AVC
Duration : 1 h 43 min
Bit rate : 2 561 kb/s
Width : 1 200 pixels
Height : 720 pixels
Display aspect ratio : 5:3
Frame rate mode : Constant
Frame rate : 23.976 (24000/1001) FPS
Color space : YUV
Chroma subsampling : 4:2:0
Bit depth : 8 bits
Scan type : Progressive
Bits/(Pixel*Frame) : 0.124
Stream size : 1.84 GiB (64%)
Writing library : x264 core 155 r2901 7d0ff22
Encoding settings : cabac=1 / ref=9 / deblock=1:-3:-3 / analyse=0x3:0x133 / me=umh / subme=10 / psy=1 / psy_rd=1.00:0.00 / mixed_ref=1 / me_range=32 / chroma_me=1 / trellis=2 / 8x8dct=1 / cqm=0 / deadzone=21,11 / fast_pskip=0 / chroma_qp_offset=-2 / threads=15 / lookahead_threads=3 / sliced_threads=0 / nr=0 / decimate=0 / interlaced=0 / bluray_compat=0 / constrained_intra=0 / bframes=16 / b_pyramid=2 / b_adapt=2 / b_bias=0 / direct=3 / weightb=1 / open_gop=0 / weightp=1 / keyint=240 / keyint_min=24 / scenecut=40 / intra_refresh=0 / rc_lookahead=60 / rc=crf / mbtree=0 / crf=19.0 / qcomp=0.60 / qpmin=0 / qpmax=69 / qpstep=4 / vbv_maxrate=62500 / vbv_bufsize=78125 / crf_max=0.0 / nal_hrd=none / filler=0 / ip_ratio=1.40 / pb_ratio=1.30 / aq=2:1.00
Language : French
Default : Yes
Forced : No
Color range : Limited
Color primaries : BT.709
Transfer characteristics : BT.709
Matrix coefficients : BT.709

Audio #1
ID : 2
Format : AC-3
Format/Info : Audio Coding 3
Commercial name : Dolby Digital
Codec ID : A_AC3
Duration : 1 h 42 min
Bit rate mode : Constant
Bit rate : 384 kb/s
Channel(s) : 6 channels
Channel layout : L R C LFE Ls Rs
Sampling rate : 48.0 kHz
Frame rate : 31.250 FPS (1536 SPF)
Bit depth : 16 bits
Compression mode : Lossy
Stream size : 283 MiB (10%)
Title : iTunes
Language : Russian
Service kind : Complete Main
Default : Yes
Forced : Yes

Audio #2
ID : 3
Format : AC-3
Format/Info : Audio Coding 3
Commercial name : Dolby Digital
Codec ID : A_AC3
Duration : 1 h 42 min
Bit rate mode : Constant
Bit rate : 384 kb/s
Channel(s) : 6 channels
Channel layout : L R C LFE Ls Rs
Sampling rate : 48.0 kHz
Frame rate : 31.250 FPS (1536 SPF)
Bit depth : 16 bits
Compression mode : Lossy
Stream size : 283 MiB (10%)
Title : iTunes
Language : Ukrainian
Service kind : Complete Main
Default : No
Forced : No

Audio #3
ID : 4
Format : AC-3
Format/Info : Audio Coding 3
Commercial name : Dolby Digital
Codec ID : A_AC3
Duration : 1 h 43 min
Bit rate mode : Constant
Bit rate : 640 kb/s
Channel(s) : 6 channels
Channel layout : L R C LFE Ls Rs
Sampling rate : 48.0 kHz
Frame rate : 31.250 FPS (1536 SPF)
Bit depth : 16 bits
Compression mode : Lossy
Stream size : 471 MiB (16%)
Title : Original
Language : French
Service kind : Complete Main
Default : No
Forced : No

Menu
00:00:00.000 : :Chapter 1
00:05:44.177 : :Chapter 2
00:12:07.769 : :Chapter 3
00:18:28.274 : :Chapter 4
00:25:54.887 : :Chapter 5
00:32:11.847 : :Chapter 6
00:38:50.328 : :Chapter 7
00:45:21.010 : :Chapter 8
00:51:00.516 : :Chapter 9
00:57:40.290 : :Chapter 10
01:04:43.797 : :Chapter 11
01:10:38.025 : :Chapter 12
01:17:53.419 : :Chapter 13
01:23:36.553 : :Chapter 14
01:32:00.807 : :Chapter 15
01:37:08.906 : :Chapter 16

Оригинальное название: Les affamés
Релиз от:

ОценкаНикто ещё не поставил оценку КатегорияЗарубежные фильмы Раздают10 Качают0 Сидер замечен09-07-2019 18:19:12 (4 минуты назад) Добавлен14-04-2019 20:04:11 (3 месяца назад) Размер2.86 GB (3067363381 Bytes)Аудио #03: 48 kHz, AC3, 5.1, 640 Kbps | Оригинал |Режиссер: Робин Обер
Студия: La Maison de Prod, Christal Films Distribution, Téléfilm Canada
Продолжительность: 01:43:00
Аудио #02: 48 kHz, AC3, 5.1, 384 Kbps | iTunes |Видео: MPEG-4 AVC, 1200x720, 2561 Kbit/s, 24 fps
Аудио #01: 48 kHz, AC3, 5.1, 384 Kbps | iTunes |RUS |
UKR |

Если у вас возникли проблемы с закачкой Голодные Z / Les affames (2017) BDRip 720p от селезень | iTunes, перейдите по ссылке - там вы найдете решение своей проблемы.

Категория: Зарубежные фильмы

 

Скачать Голодные Z / Les affames (2017) BDRip 720p от селезень | iTunes бесплатно без регистрации

 

Информация
Посетители, находящиеся в группе Гости, не могут оставлять комментарии к данной публикации.
 
 
Скачать Голодные Z / Les affames (2017) BDRip 720p от селезень | iTunes бесплатно без регистрацииCopyright © 2019 .