Скачать Пролетая над гнездом кукушки / One Flew Over the Cuckoo's Nest (1975) BDRip 720p | D бесплатно без регистрации




Название: Пролетая над гнездом кукушки
envy. Оценка8.2 из 10 (5 голосов, самая низкая оценка - 1, самая высокая - 10) КатегорияЗарубежные фильмы Раздают23 Качают0 Сидер замечен09-07-2019 14:19:12 (4 минуты назад) Добавлен02-05-2013 11:47:43 (75 месяцев назад) Размер4.37 GB (4689392984 Bytes)Режиссер: Милош Форман
Качество: BDRip 720p (DVD5) (исходник Blu-Ray Disc)
Сюжет фильма
Как насчет отдыха за государственный счет в небольшой психиатрической больнице? Именно это и сделал беспокойный и независимый МакМерфи, у которого в венах — огонь, а язык остер как бритва: симулировал сумасшествие и поселился «у психов».
Немедленно его заразное чувство независимости начинает отравлять серую рутину больничных будней. Если по телевизору идет всемирный чемпионат по бейсболу, он не допустит, чтобы накаченные успокоительными таблетками пациенты слонялись вокруг.
Это — война! На одной стороне — МакМерфи. На другой — санитарка Рэтчед, у нее спокойный голос, она — один из самых хладнокровных и беспощадных злодеев в истории кино. На кону судьба каждого пациента в палате.
Релиз Группа | Автор Рипа:

Скриншоты
MediaInfoFormat : Matroska
Format version : Version 4 / Version 2
File size : 4.37 GiB
Duration : 2h 13mn
Overall bit rate : 4 676 Kbps
Movie name : Пролетая над гнездом кукушки.(1975).BDRip.720p.(DVD5).[NoLimits-Team]
Encoded date : UTC 2013-05-02 05:35:46
Writing application : mkvmerge v6.0.0 ('Coming Up For Air') built on Jan 20 2013 09:52:00
Writing library : libebml v1.3.0 + libmatroska v1.4.0

Video
ID : 1
Format : AVC
Format/Info : Advanced Video Codec
Format profile : High@L4.1
Format settings, CABAC : Yes
Format settings, ReFrames : 9 frames
Codec ID : V_MPEG4/ISO/AVC
Duration : 2h 13mn
Bit rate : 3 908 Kbps
Width : 1 280 pixels
Height : 720 pixels
Display aspect ratio : 16:9
Frame rate mode : Constant
Frame rate : 23.976 fps
Color space : YUV
Chroma subsampling : 4:2:0
Bit depth : 8 bits
Scan type : Progressive
Bits/(Pixel*Frame) : 0.177
Stream size : 3.56 GiB (82%)
Title : Пролетая над гнездом кукушки.(1975).BDRip.720p.(DVD5).[NoLimits-Team]
Writing library : x264 core 130 r2273 b3065e6
Encoding settings : cabac=1 / ref=9 / deblock=1:0:0 / analyse=0x3:0x133 / me=umh / subme=11 / psy=1 / psy_rd=1.00:0.00 / mixed_ref=1 / me_range=64 / chroma_me=1 / trellis=2 / 8x8dct=1 / cqm=0 / deadzone=21,11 / fast_pskip=0 / chroma_qp_offset=-2 / threads=9 / lookahead_threads=2 / sliced_threads=0 / nr=0 / decimate=1 / interlaced=0 / bluray_compat=0 / constrained_intra=0 / bframes=14 / b_pyramid=2 / b_adapt=2 / b_bias=0 / direct=3 / weightb=1 / open_gop=0 / weightp=2 / keyint=240 / keyint_min=23 / scenecut=40 / intra_refresh=0 / rc_lookahead=60 / rc=2pass / mbtree=1 / bitrate=3908 / ratetol=1.0 / qcomp=0.60 / qpmin=0 / qpmax=69 / qpstep=4 / cplxblur=20.0 / qblur=0.5 / ip_ratio=1.40 / aq=1:1.00
Language : English
Default : Yes
Forced : No

Audio #1
ID : 2
Format : AC-3
Format/Info : Audio Coding 3
Mode extension : CM (complete main)
Format settings, Endianness : Big
Codec ID : A_AC3
Duration : 2h 13mn
Bit rate mode : Constant
Bit rate : 384 Kbps
Channel(s) : 6 channels
Channel positions : Front: L C R, Side: L R, LFE
Sampling rate : 48.0 KHz
Bit depth : 16 bits
Compression mode : Lossy
Stream size : 367 MiB (8%)
Title : Дублированный
Language : Russian
Default : Yes
Forced : No

Audio #2
ID : 3
Format : AC-3
Format/Info : Audio Coding 3
Mode extension : CM (complete main)
Format settings, Endianness : Big
Codec ID : A_AC3
Duration : 2h 13mn
Bit rate mode : Constant
Bit rate : 384 Kbps
Channel(s) : 6 channels
Channel positions : Front: L C R, Side: L R, LFE
Sampling rate : 44.1 KHz
Bit depth : 16 bits
Compression mode : Lossy
Stream size : 367 MiB (8%)
Title : Английский
Language : English
Default : No
Forced : No

Text
ID : 4
Format : UTF-8
Codec ID : S_TEXT/UTF8
Codec ID/Info : UTF-8 Plain Text
Title : Русские (полные)
Language : Russian
Default : No
Forced : No

Menu
00:05:00.000 : :Chapter 01
00:10:00.000 : :Chapter 02
00:15:00.000 : :Chapter 03
00:25:00.000 : :Chapter 04
00:35:00.000 : :Chapter 05
00:45:00.000 : :Chapter 06
00:55:00.000 : :Chapter 07
01:05:00.000 : :Chapter 08
01:15:00.000 : :Chapter 09
01:25:00.000 : :Chapter 10
01:35:00.000 : :Chapter 11
01:45:00.000 : :Chapter 12
01:55:00.000 : :Chapter 13
02:05:00.000 : :Chapter 14
ЗалилОригинальное название: One Flew Over the Cuckoo's Nest
Аудио 2: AC-3, 384 Кбит/сек, 6 канала(ов), 48,0 КГц - Оригинал / Английский
Чаптеры: Есть

Продолжительность: 02:13:42
Год выхода: 1975
Информация о фильме
Видео: 1280x720, 3908 Кбит/сек, 23,976 кадр/сек, AVC, x264, High@L4.1, 16:9, 0.177 Бит/[Пиксели*Кадры], 2pass
Субтитры: Русские | Полные
Жанр: Драма
Перевод: Дублированный
Выпущено: США
Файл
В ролях: Джек Николсон, Луиз Флетчер, Уильям Редфилд, Майкл Берриман, Питер Брокко, Дин Р. Брукс, Алонсо Браун, Скэтмэн Кроверс, Муако Кумбука, Дэнни ДеВито, Уильям Дюэл, Лан Фендорс, Натан Джордж, Кен Кенни, Мэл Ламберт, Сидни Лассик, Кэй Ли, Кристофер Ллойд, Дуайт Марфилд, Тед Марклэнд
Аудио 1: AC-3, 384 Кбит/сек, 6 канала(ов), 48,0 КГц - Дублированный / Русский

Если у вас возникли проблемы с закачкой Пролетая над гнездом кукушки / One Flew Over the Cuckoo's Nest (1975) BDRip 720p | D, перейдите по ссылке - там вы найдете решение своей проблемы.

Категория: Зарубежные фильмы

 

Скачать Пролетая над гнездом кукушки / One Flew Over the Cuckoo's Nest (1975) BDRip 720p | D бесплатно без регистрации

 

Информация
Посетители, находящиеся в группе Гости, не могут оставлять комментарии к данной публикации.
 
 
Скачать Пролетая над гнездом кукушки / One Flew Over the Cuckoo's Nest (1975) BDRip 720p | D бесплатно без регистрацииCopyright © 2019 .