Скачать Когда зовёт сердце / When Calls the Heart (2013) HDTVRip | ИндивИдуалист бесплатно без регистрации




Режиссёр: Майкл Лэндон (младший) / Michael Landon Jr.

Страна: США
ИндивИдуалист;

Видео: XviD, 624x352 (16:9), 29.97fps, 1 110 Kbps
Когда зовёт сердце
When Calls the Heart


1,5ГБ |Перевод: Любительский одноголосый закадровый -Качество видео: HDTVRip
gojungle, animaglory;
Редактура, озвучивание, аудиомонтаж, русификация постера:ИндивИдуалист
Отрывок |Год выпуска: 2013
Формат видео: AVI

ИндивИдуалист


Скриншоты




МИ
General
Format : AVI
Format/Info : Audio Video Interleave
File size : 749 MiB
Duration : 1h 23mn
Overall bit rate : 1 249 Kbps
Writing application : VirtualDubModRus 1.5.10.2 (build 2542/release)
Writing library : VirtualDubMod build 2542/release

Video
ID : 0
Format : MPEG-4 Visual
Format profile : Advanced Simple@L5
Format settings, BVOP : 2
Format settings, QPel : No
Format settings, GMC : No warppoints
Format settings, Matrix : Custom
Codec ID : XVID
Codec ID/Hint : XviD
Duration : 1h 23mn
Bit rate : 1 110 Kbps
Width : 624 pixels
Height : 352 pixels
Display aspect ratio : 16:9
Frame rate : 29.970 fps
Color space : YUV
Chroma subsampling : 4:2:0
Bit depth : 8 bits
Scan type : Progressive
Compression mode : Lossy
Bits/(Pixel*Frame) : 0.169
Stream size : 666 MiB (89%)
Writing library : XviD 73

Audio
ID : 1
Format : MPEG Audio
Format version : Version 1
Format profile : Layer 3
Mode : Joint stereo
Mode extension : MS Stereo
Codec ID : 55
Codec ID/Hint : MP3
Duration : 1h 23mn
Bit rate mode : Constant
Bit rate : 128 Kbps
Channel(s) : 2 channels
Sampling rate : 48.0 KHz
Compression mode : Lossy
Stream size : 76.3 MiB (10%)
Alignment : Aligned on interleaves
Interleave, duration : 34 ms (1.01 video frame)
Interleave, preload duratio : 504 ms

Жанр: Драма, экранизация, приключения
Продолжительность: 01:23:20
В ролях: Стивен Амелл, Мэгги Грэйс, Лори Лафлин, Дэниэл Шарман, Джин Смарт, Наташа Калис, Кристофер Вилльерс, Шери Лунги, Ли Уильямс, Поппи Дрейтон

Мои раздачи

Аудио#1: 48 kHz, МР3, 2/0 (L,R) ch, ~128.00 kbps avgОписание: По роману Джанетт Ок (Janette Oke).Элизабет Тэтчер — молодая школьная учительница из богатой семьи. Она уезжает из большого города, чтобы преподавать в школе в маленьком шахтёрском городке…
Данный фильм является предысторией к сериалу "Когда зовёт сердце", который вышел в США в январе 2014, премьера этого фильма состоялась 19 октября 2013 на телеканале "Холлмарк".

Перевод фильма:Приятного просмотра! = ) ОценкаНикто ещё не поставил оценку КатегорияЗарубежные фильмы Раздают0 Качают1 Сидер замечен18-11-2017 12:19:06 (20 месяцев назад) Добавлен25-02-2015 8:34:57 (53 месяца назад) Размер749.31 MB (785713152 Bytes)

Если у вас возникли проблемы с закачкой Когда зовёт сердце / When Calls the Heart (2013) HDTVRip | ИндивИдуалист, перейдите по ссылке - там вы найдете решение своей проблемы.

Категория: Зарубежные фильмы

 

Скачать Когда зовёт сердце / When Calls the Heart (2013) HDTVRip | ИндивИдуалист бесплатно без регистрации

 

Информация
Посетители, находящиеся в группе Гости, не могут оставлять комментарии к данной публикации.
 
 
Скачать Когда зовёт сердце / When Calls the Heart (2013) HDTVRip | ИндивИдуалист бесплатно без регистрацииCopyright © 2019 .