Скачать Впусти меня / Let the right one in / Låt den rätte komma in (2008) BDRip 720p | P, A бесплатно без регистрации






Информация о фильме
[Юрий Немахов]
4: Украинский: профессиональный многоголосый закадровый -Гойя, 2010 год
Номинации (1):

Лучший европейский фильм

Европейская киноакадемия, 2009 год
Номинации (3):

Лучший фильм
Лучший композитор (Юхан Сёдерквист)
Приз зрительских симпатий

Киномания|
3: Русский: одноголосый закадровый (авторский)Омікрон


MediaInfo:
Общее
Уникальный идентификатор : 196736175549404103199675349299778650720 (0x9402025889B81271AF6AD4A135B98260)
Полное имя : D:ФільмиФільми 1080рLat.den.ratte.komma.in.2008.720p.BluRay.3xRus.Ukr.Swe.HDCLUB-SbR.mkv
Формат : Matroska
Версия формата : Version 2
Размер файла : 10,9 Гбайт
Продолжительность : 1 ч. 54 м.
Общий поток : 13,5 Мбит/сек
Название фильма : Låt den rätte komma in (2008) - Encode by SbR
Дата кодирования : UTC 2016-09-17 10:09:08
Программа кодирования : mkvmerge v9.3.1 ('Mask Machine') 64bit
Библиотека кодирования : libebml v1.3.4 + libmatroska v1.4.5
Обложка : Yes
Attachments : xlog.txt / cover.jpg

Видео
Идентификатор : 1
Формат : AVC
Формат/Информация : Advanced Video Codec
Профиль формата : High@L4.1
Параметр CABAC формата : Да
Параметр RefFrames формата : 11 кадров
Идентификатор кодека : V_MPEG4/ISO/AVC
Продолжительность : 1 ч. 54 м.
Ширина : 1280 пикселей
Высота : 546 пикселей
Соотношение сторон : 2,35:1
Режим частоты кадров : Постоянный
Частота кадров : 23,976 (24000/1001) кадра/сек
Цветовое пространство : YUV
Субдискретизация насыщенности : 4:2:0
Битовая глубина : 8 бит
Тип развёртки : Прогрессивная
Заголовок : Release for HDCLUB
Библиотека кодирования : x264 core 148 r2705kMod 3f5ed56
Настройки программы : cabac=1 / ref=11 / deblock=1:-2:-2 / analyse=0x3:0x133 / me=umh / subme=11 / psy=1 / fade_compensate=0.00 / psy_rd=1.00:0.00 / mixed_ref=1 / me_range=32 / chroma_me=1 / trellis=2 / 8x8dct=1 / cqm=0 / deadzone=21,11 / fast_pskip=1 / chroma_qp_offset=-2 / threads=12 / lookahead_threads=3 / sliced_threads=0 / nr=0 / decimate=1 / interlaced=0 / bluray_compat=0 / constrained_intra=0 / fgo=0 / bframes=10 / b_pyramid=2 / b_adapt=2 / b_bias=0 / direct=1 / weightb=1 / open_gop=0 / weightp=2 / keyint=250 / keyint_min=23 / scenecut=40 / intra_refresh=0 / rc_lookahead=60 / rc=crf / mbtree=0 / crf=16.0000 / qcomp=0.65 / qpmin=0 / qpmax=69 / qpstep=4 / vbv_maxrate=62500 / vbv_bufsize=78125 / crf_max=0.0 / nal_hrd=none / filler=0 / ip_ratio=1.40 / pb_ratio=1.30 / aq=1:0.80
Язык : English
Default : Да
Forced : Нет
Цветовой диапазон : Limited
Основные цвета : BT.709
Характеристики трансфера : BT.709
Коэффициенты матрицы : BT.709

Аудио #1
Идентификатор : 2
Формат : DTS
Формат/Информация : Digital Theater Systems
Режим : 16
Параметр Endianness формата : Big
Идентификатор кодека : A_DTS
Продолжительность : 1 ч. 54 м.
Вид битрейта : Постоянный
Битрейт : 1509 Кбит/сек
Каналы : 6 каналов
Расположение каналов : Front: L C R, Side: L R, LFE
Частота : 48,0 КГц
Частота кадров : 93,750 кадра/сек (512 SPF)
Битовая глубина : 24 бит
Метод сжатия : С потерями
Размер потока : 1,21 Гбайт (11%)
Заголовок : Многоголосый, R5
Язык : Russian
Default : Да
Forced : Нет

Аудио #2
Идентификатор : 3
Формат : DTS
Формат/Информация : Digital Theater Systems
Режим : 16
Параметр Endianness формата : Big
Идентификатор кодека : A_DTS
Продолжительность : 1 ч. 54 м.
Вид битрейта : Постоянный
Битрейт : 1509 Кбит/сек
Каналы : 6 каналов
Расположение каналов : Front: L C R, Side: L R, LFE
Частота : 48,0 КГц
Частота кадров : 93,750 кадра/сек (512 SPF)
Битовая глубина : 24 бит
Метод сжатия : С потерями
Размер потока : 1,21 Гбайт (11%)
Заголовок : Многоголосый, Киномания
Язык : Russian
Default : Нет
Forced : Нет

Аудио #3
Идентификатор : 4
Формат : DTS
Формат/Информация : Digital Theater Systems
Режим : 16
Параметр Endianness формата : Big
Идентификатор кодека : A_DTS
Продолжительность : 1 ч. 54 м.
Вид битрейта : Постоянный
Битрейт : 1509 Кбит/сек
Каналы : 6 каналов
Расположение каналов : Front: L C R, Side: L R, LFE
Частота : 48,0 КГц
Частота кадров : 93,750 кадра/сек (512 SPF)
Битовая глубина : 24 бит
Метод сжатия : С потерями
Размер потока : 1,21 Гбайт (11%)
Заголовок : Немахов
Язык : Russian
Default : Нет
Forced : Нет

Аудио #4
Идентификатор : 5
Формат : AC-3
Формат/Информация : Audio Coding 3
Параметр Endianness формата : Big
Идентификатор кодека : A_AC3
Продолжительность : 1 ч. 54 м.
Вид битрейта : Постоянный
Битрейт : 448 Кбит/сек
Каналы : 6 каналов
Расположение каналов : Front: L C R, Side: L R, LFE
Частота : 48,0 КГц
Частота кадров : 31,250 кадров/сек (1536 SPF)
Битовая глубина : 16 бит
Метод сжатия : С потерями
Размер потока : 368 Мбайт (3%)
Заголовок : Многоголосый, Омікрон
Язык : Ukrainian
ServiceKind/String : Complete Main
Default : Нет
Forced : Нет

Аудио #5
Идентификатор : 6
Формат : DTS
Формат/Информация : Digital Theater Systems
Режим : 16
Параметр Endianness формата : Big
Идентификатор кодека : A_DTS
Продолжительность : 1 ч. 54 м.
Вид битрейта : Постоянный
Битрейт : 1509 Кбит/сек
Каналы : 6 каналов
Расположение каналов : Front: L C R, Side: L R, LFE
Частота : 48,0 КГц
Частота кадров : 93,750 кадра/сек (512 SPF)
Битовая глубина : 24 бит
Метод сжатия : С потерями
Размер потока : 1,21 Гбайт (11%)
Язык : Swedish
Default : Нет
Forced : Нет

Аудио #6
Идентификатор : 7
Формат : AAC
Формат/Информация : Advanced Audio Codec
Профиль формата : LC
Идентификатор кодека : A_AAC
Продолжительность : 1 ч. 54 м.
Каналы : 2 канала
Расположение каналов : Front: L R
Частота : 48,0 КГц
Частота кадров : 46,875 кадров/сек (1024 SPF)
Метод сжатия : С потерями
Задержка видео : 9 мс.
Заголовок : AAC LC 2.0 @ 74 kbps - Commentary
Язык : English
Default : Нет
Forced : Нет

Текст #1
Идентификатор : 8
Формат : UTF-8
Идентификатор кодека : S_TEXT/UTF8
Идентификатор кодека/Информация : UTF-8 Plain Text
Заголовок : R5
Язык : Russian
Default : Нет
Forced : Нет

Текст #2
Идентификатор : 9
Формат : UTF-8
Идентификатор кодека : S_TEXT/UTF8
Идентификатор кодека/Информация : UTF-8 Plain Text
Заголовок : Киномания
Язык : Russian
Default : Нет
Forced : Нет

Текст #3
Идентификатор : 10
Формат : UTF-8
Идентификатор кодека : S_TEXT/UTF8
Идентификатор кодека/Информация : UTF-8 Plain Text
Язык : English
Default : Нет
Forced : Нет

Текст #4
Идентификатор : 11
Формат : UTF-8
Идентификатор кодека : S_TEXT/UTF8
Идентификатор кодека/Информация : UTF-8 Plain Text
Заголовок : SDH
Язык : English
Default : Нет
Forced : Нет

Меню
00:00:00.000 : en:Lesson
00:07:05.217 : en:Radio
00:13:50.956 : en:Murder
00:22:52.581 : en:Help Me
00:33:43.982 : en:Writing
00:42:19.706 : en:Help
00:59:03.961 : en:Ice Hole
01:04:05.512 : en:Swimming
01:05:54.538 : en:You Don't Understand
01:11:23.158 : en:A Guest
01:15:34.576 : en:Cats
01:17:54.883 : en:Are You Dead?
01:25:09.318 : en:As Me In
01:31:56.934 : en:The Bathroom
01:40:35.786 : en:Hi Oskar
01:49:53.302 : en:End Credits





Продолжительность: 01:54:59
DiMk@™ ОценкаНикто ещё не поставил оценку КатегорияЗарубежные фильмы Раздают1 Качают0 Сидер замечен09-07-2019 8:19:12 (4 минуты назад) Добавлен20-12-2017 13:19:23 (19 месяцев назад) Размер10.87 GB (11676476670 Bytes)Британская академия, 2010 год
Номинации (1):

Лучший фильм на иностранном языке

Формат: MKV
Релиз от ЗалилТомас Альфредсон / Tomas Alfredson
Год выхода: 2008
Сатурн, 2009 год
Победитель (1):

Лучший иностранный фильм

Номинации (2):

Лучший молодой актер/актриса (Лина Леандерссон)
Лучший сценарий



Производство: Швеция / EFTI, Fido Film AB
Перевод:
1: Русский: профессиональный многоголосый закадровый -Жанр: ужасы, драма, мелодрама
Видео: 1280x546 at 23.976 fps, x264, ~6999 kbps avg
Аудио#1: Russian: 48 kHz, DTS, 3/2 (L,C,R,l,r) + LFE ch, ~1509.00 kbps avg |Многоголосый закадровый, R5|
Аудио#2: Russian: 48 kHz, DTS, 3/2 (L,C,R,l,r) + LFE ch, ~1509.00 kbps avg |Многоголосый закадровый, Киномания|
Аудио#3: Russian: 48 kHz, DTS, 3/2 (L,C,R,l,r) + LFE ch, ~1509.00 kbps avg |Одноголосый закадровый, Ю. Немахов|
Аудио#4: Ukrainian: 48 kHz, AC3, 3/2 (L,C,R,l,r) + LFE ch, ~448 kbps avg |Многоголосый закадровый, Омікрон|
Аудио#5: Swedish: 48 kHz, DTS, 3/2 (L,C,R,l,r) + LFE ch, ~1509.00 kbps avg
Аудио#6: English: 48 kHz, AAC, 2/0 (L,R) ch, ~74.00 kbps avg |Commentary|
Субтитры: Russian (R5), Russian (Киномания), English, English (SDH)

Скриншоты


О фильме:
Экранизация одноименного романа Йон Айвиде Линдквист. Двенадцатилетний Оскар живет в небольшой деревушке неподалеку от Стокгольма. Днем он подвергается насмешкам и терпеливо сносит унизительные пинки и затрещины, зато ночью он мечтает о мести. Воспитываемый без отца Оскар, ускользнув от присмотра матери, в красках описывает в тетрадке изобретательные и безжалостные убийства его обидчиков. На бумаге он связывает людей, ломает им шеи и высасывает из них кровь. Еще он тренируется метать ножи на заднем дворе. Но однажды ночью он знакомится с девушкой по имени Эли. Она его новая соседка. Два изгоя мгновенно становятся друзьями, Эли учит Оскара храбрости, а Оскар пробуждает в ней жажду любви. Но Эли, увы, этого недостаточно - ее мучает жажда крови...

НаградыНазвание: Впусти меня
Оригинальное название: Låt den rätte komma in / Let the Right One In
В ролях: Каре Хедебрант, Лина Леандерссон, Пер Рагнар, Хенрик Даль, Карин Бергкуист, Петер Карлберг, Ика Норд, Микаэль Рахм, Карл-Роберт Линдгрен, Андерс Т. Педу

Качество: BDRip 720p
R5|
2: Русский: профессиональный многоголосый закадровый -Режиссер:

Если у вас возникли проблемы с закачкой Впусти меня / Let the right one in / Låt den rätte komma in (2008) BDRip 720p | P, A, перейдите по ссылке - там вы найдете решение своей проблемы.

Категория: Зарубежные фильмы

 

Скачать Впусти меня / Let the right one in / Låt den rätte komma in (2008) BDRip 720p | P, A бесплатно без регистрации

 

Информация
Посетители, находящиеся в группе Гости, не могут оставлять комментарии к данной публикации.
 
 
Скачать Впусти меня / Let the right one in / Låt den rätte komma in (2008) BDRip 720p | P, A бесплатно без регистрацииCopyright © 2019 .