Скачать Ennio Morricone - Greatest Western Themes (2004) FLAC от VEGA-LosslesS.VT бесплатно без регистрации






Формат/Кодек: FLAC (image+.cue)
Название: Greatest Western Themes
Жанр: Soundtrack

Продолжительность: 00:49:41
Битрейт аудио: Lossless

Трек-лист
01. The Good, The Bad And The Ugly
02. Once Upon A Time In The West
03. Theme From A Fistful Of Dollars
04. Farewell To Cheyenne
05. Titoli
06. Sixty Seconds To What
07. My Name Is Mobody
08. The Ecstasy Of Gold
09. Love Theme from Guns For San Sebastian
10. Un Tetto Di Stelle
11. The Man With The Harmonica
12. March Of The Beggars
13. L'Arena
14. Dusk, You Sucker

LogExact Audio Copy V1.0 beta 3 from 29. August 2011

Отчёт EAC об извлечении, выполненном 16. мая 2013, 18:05

Ennio Morricone / Greatest Western Themes

Дисковод: HL-DT-STDVDRAM GE20NU11 Adapter: 3 ID: 0

Режим чтения : Достоверность
Использование точного потока : Да
Отключение кэша аудио : Да
Использование указателей C2 : Нет

Коррекция смещения при чтении : 667
Способность читать области Lead-in и Lead-out : Нет
Заполнение пропущенных сэмплов тишиной : Да
Удаление блоков с тишиной в начале и конце : Нет
При вычислениях CRC использовались нулевые сэмплы : Да
Интерфейс : Встроенный Win32-интерфейс для Win NT/2000

Выходной формат : Пользовательский кодировщик
Выбранный битрейт : 1024 kBit/s
Качество : Высокий
Добавление ID3-тега : Нет
Утилита сжатия : C:Program Files (x86)Exact Audio CopyFLACFLAC.EXE
Дополнительные параметры : -6 -V -T "ARTIST=%artist%" -T "TITLE=%title%" -T "ALBUM=%albumtitle%" -T "DATE=%year%" -T "TRACKNUMBER=%tracknr%" -T "GENRE=%genre%" -T "COMMENT=%comment%" -T "BAND=%albuminterpret%" -T "ALBUMARTIST=%albuminterpret%" -T "COMPOSER=%composer%" %haslyrics%--tag-from-file=LYRICS="%lyricsfile%"%haslyrics% -T "DISCNUMBER=%cdnumber%" -T "TOTALDISCS=%totalcds%" -T "TOTALTRACKS=%numtracks%" %hascover%--picture="%coverfile%"%hascover% %source% -o %dest%


TOC извлечённого CD

Трек | Старт | Длительность | Начальный сектор | Конечный сектор
---------------------------------------------------------------------
1 | 0:00.00 | 2:45.13 | 0 | 12387
2 | 2:45.13 | 3:51.20 | 12388 | 29732
3 | 6:36.33 | 1:54.36 | 29733 | 38318
4 | 8:30.69 | 2:46.43 | 38319 | 50811
5 | 11:17.37 | 3:04.05 | 50812 | 64616
6 | 14:21.42 | 3:07.50 | 64617 | 78691
7 | 17:29.17 | 3:21.06 | 78692 | 93772
8 | 20:50.23 | 3:40.13 | 93773 | 110285
9 | 24:30.36 | 3:03.58 | 110286 | 124068
10 | 27:34.19 | 4:58.20 | 124069 | 146438
11 | 32:32.39 | 3:43.10 | 146439 | 163173
12 | 36:15.49 | 5:04.32 | 163174 | 186005
13 | 41:20.06 | 4:43.09 | 186006 | 207239
14 | 46:03.15 | 3:37.63 | 207240 | 223577


Характеристики диапазона извлечения и сообщения об ошибках

Выбранный диапазон

Имя файла H:POLIGONEnnio Morricone - Greatest Western Themes.wav

Пиковый уровень 94.4 %
Скорость извлечения 1.7 X
Качество диапазона 99.9 %
CRC копии 5F7FC82C
Копирование... OK

Ошибок не произошло


AccurateRip: сводка

Трек 1 точность не определена (достоверность 1) [20EC2F80], AccurateRip вернул [B3C72CC7] (AR v2)
Трек 2 точность не определена (достоверность 1) [0D6FC093], AccurateRip вернул [61680178] (AR v2)
Трек 3 точность не определена (достоверность 1) [A6B2C9D3], AccurateRip вернул [024DA6E7] (AR v2)
Трек 4 точность не определена (достоверность 1) [11381E19], AccurateRip вернул [394F9A10] (AR v2)
Трек 5 точность не определена (достоверность 1) [2E41AA63], AccurateRip вернул [705BC5B8] (AR v2)
Трек 6 точность не определена (достоверность 1) [F51A6ED8], AccurateRip вернул [1863C456] (AR v2)
Трек 7 точность не определена (достоверность 1) [A17CCF02], AccurateRip вернул [659C9545] (AR v2)
Трек 8 точность не определена (достоверность 1) [C1C923B4], AccurateRip вернул [777D3AFA] (AR v2)
Трек 9 точность не определена (достоверность 1) [AF4E0C23], AccurateRip вернул [087F27AC] (AR v2)
Трек 10 точность не определена (достоверность 1) [BB3C9198], AccurateRip вернул [E353978F] (AR v2)
Трек 11 точность не определена (достоверность 1) [85AF5E11], AccurateRip вернул [944AB04A] (AR v2)
Трек 12 точность не определена (достоверность 1) [BE09CF8A], AccurateRip вернул [ED3DBB8F] (AR v2)
Трек 13 точность не определена (достоверность 1) [9CADFEAC], AccurateRip вернул [7DC342E8] (AR v2)
Трек 14 точность не определена (достоверность 1) [74067022], AccurateRip вернул [42EFEECB] (AR v2)

Ни один трек не прошёл проверки на точность
В вашей базе может быть иной вариант штамповки диска

Конец отчёта

---- CUETools DB Plugin V2.1.3

[CTDB TOCID: 9sOM67vHrj2x.xwl.t4mkgaK6_I-] found, Submit result: 9sOM67vHrj2x.xwl.t4mkgaK6_I- has been confirmed
[3ee06acf] (2/2) Accurately ripped


==== Контрольная сумма отчёта 5CB2A72C7C4EEEF59154BB458C7CCF2671669FC1FBE7BA91667F3BAA275C26D7 ====

RELIZ от RG: rip от: ЗалилГод: 2004
Алатар ОценкаНикто ещё не поставил оценку КатегорияМузыка Раздают0 Качают0 Сидер замечен08-07-2019 22:19:12 (6 часов назад) Добавлен17-05-2013 22:34:02 (75 месяцев назад) Размер291.50 MB (305660174 Bytes)Исполнитель: Ennio Morricone

Если у вас возникли проблемы с закачкой Ennio Morricone - Greatest Western Themes (2004) FLAC от VEGA-LosslesS.VT, перейдите по ссылке - там вы найдете решение своей проблемы.

Категория: Музыка

 

Скачать Ennio Morricone - Greatest Western Themes (2004) FLAC от VEGA-LosslesS.VT бесплатно без регистрации

 

Информация
Посетители, находящиеся в группе Гости, не могут оставлять комментарии к данной публикации.
 
 
Скачать Ennio Morricone - Greatest Western Themes (2004) FLAC от VEGA-LosslesS.VT бесплатно без регистрацииCopyright © 2019 .