Скачать 24 часа на жизнь / 24 Hours to Live (2017) BDRip 720p от ExKinoRay | iTunes бесплатно без регистрации






Информация о фильме
Подпишись на меня, кликни по картинкеСубтитры: Английские





MIGeneral
Unique ID : 107572633618045564537516439798008351491 (0x50EDBC52208559074C4FA118CA6D8B03)
Complete name : G:VideoSSD24.Hours.to.Live.2017.BDRip.720p.ExKinoRay.mkv
Format : Matroska
Format version : Version 4 / Version 2
File size : 4.27 GiB
Duration : 1 h 33 min
Overall bit rate : 6 529 kb/s
Movie name : 24 Hours to Live 2017 from ExKinoRay
Encoded date : UTC 2018-01-26 01:32:01
Writing application : mkvmerge v20.0.0 ('I Am The Sun') 64-bit
Writing library : libebml v1.3.5 + libmatroska v1.4.8

Video
ID : 1
Format : AVC
Format/Info : Advanced Video Codec
Format profile : High@L4.1
Format settings : CABAC / 12 Ref Frames
Format settings, CABAC : Yes
Format settings, ReFrames : 12 frames
Codec ID : V_MPEG4/ISO/AVC
Duration : 1 h 33 min
Bit rate : 5 504 kb/s
Width : 1 280 pixels
Height : 534 pixels
Display aspect ratio : 2.40:1
Frame rate mode : Constant
Frame rate : 23.976 (24000/1001) FPS
Color space : YUV
Chroma subsampling : 4:2:0
Bit depth : 8 bits
Scan type : Progressive
Bits/(Pixel*Frame) : 0.336
Stream size : 3.60 GiB (84%)
Writing library : x264 core 152 r2851kMod ba24899
Encoding settings : cabac=1 / ref=12 / deblock=1:-3:-3 / analyse=0x3:0x133 / me=umh / subme=10 / psy=1 / fade_compensate=0.00 / psy_rd=1.00:0.00 / mixed_ref=1 / me_range=32 / chroma_me=1 / trellis=2 / 8x8dct=1 / cqm=0 / deadzone=21,11 / fast_pskip=0 / chroma_qp_offset=-2 / threads=17 / lookahead_threads=2 / sliced_threads=0 / nr=0 / decimate=1 / interlaced=0 / bluray_compat=0 / constrained_intra=0 / bframes=9 / b_pyramid=2 / b_adapt=2 / b_bias=0 / direct=1 / weightb=1 / open_gop=0 / weightp=2 / keyint=240 / keyint_min=23 / scenecut=40 / intra_refresh=0 / rc_lookahead=60 / rc=crf / mbtree=0 / crf=15.0000 / qcomp=0.60 / qpmin=0 / qpmax=69 / qpstep=4 / vbv_maxrate=50000 / vbv_bufsize=62500 / crf_max=0.0 / nal_hrd=none / filler=0 / ip_ratio=1.35 / pb_ratio=1.25 / aq=3:0.80
Language : English
Default : Yes
Forced : No

Audio #1
ID : 2
Format : AC-3
Format/Info : Audio Coding 3
Codec ID : A_AC3
Duration : 1 h 33 min
Bit rate mode : Constant
Bit rate : 384 kb/s
Channel(s) : 6 channels
Channel positions : Front: L C R, Side: L R, LFE
Sampling rate : 48.0 kHz
Frame rate : 31.250 FPS (1536 SPF)
Bit depth : 16 bits
Compression mode : Lossy
Stream size : 256 MiB (6%)
Title : iTunes
Language : Russian
Service kind : Complete Main
Default : Yes
Forced : No

Audio #2
ID : 3
Format : AC-3
Format/Info : Audio Coding 3
Codec ID : A_AC3
Duration : 1 h 33 min
Bit rate mode : Constant
Bit rate : 640 kb/s
Channel(s) : 6 channels
Channel positions : Front: L C R, Side: L R, LFE
Sampling rate : 48.0 kHz
Frame rate : 31.250 FPS (1536 SPF)
Bit depth : 16 bits
Compression mode : Lossy
Stream size : 429 MiB (10%)
Title : Original
Language : English
Service kind : Complete Main
Default : No
Forced : No

Text
ID : 4
Format : UTF-8
Codec ID : S_TEXT/UTF8
Codec ID/Info : UTF-8 Plain Text
Duration : 1 h 26 min
Bit rate : 43 b/s
Count of elements : 815
Stream size : 27.4 KiB (0%)
Title : Full
Language : English
Default : No
Forced : No

Menu
00:00:00.000 : en:00:00:00.000
00:05:41.132 : en:00:05:41.132
00:11:46.080 : en:00:11:46.080
00:17:12.323 : en:00:17:12.323
00:24:41.980 : en:00:24:41.980
00:27:46.665 : en:00:27:46.665
00:36:34.567 : en:00:36:34.567
00:41:25.233 : en:00:41:25.233
00:46:28.202 : en:00:46:28.202
00:52:35.569 : en:00:52:35.569
00:58:56.700 : en:00:58:56.700
01:06:55.470 : en:01:06:55.470
01:11:32.497 : en:01:11:32.497
01:17:02.868 : en:01:17:02.868
01:21:17.456 : en:01:21:17.456
01:27:53.268 : en:01:27:53.268

Страна: США, ЮАР, Гонконг
Аудио #01: 48 kHz, AC3, 5.1, 384 Kbps | Дублированный | iTunes |Видео: MPEG-4 AVC, 1280x534, 5504 Kbit/s, 23.976 fps
В ролях: Рутгер Хауэр, Итэн Хоук, Пол Андерсон, Лиам Каннингэм, Натали Болтт, Таня ван Граан, Хаким Кае-Казим, Сюй Цин, Эйдан Уайток, Эндрю Моргадо

Название: 24 часа на жизнь
Качество: BDRip 720p
Год выхода: 2017
Продолжительность: 01:33:36
> :



Оценка7 из 10 (3 голосов, самая низкая оценка - 5, самая высокая - 10) КатегорияЗарубежные фильмы Раздают23 Качают1 Сидер замечен09-07-2019 0:19:12 (4 минуты назад) Добавлен26-01-2018 13:00:04 (18 месяцев назад) Размер4.27 GB (4583949271 Bytes)RUS |
Перевод: Дублированный | iTunes

Студия: Fundamental Films, Thunder Road Pictures, Film Afrika Worldwide
Звук:
Релиз от: Автор релиза:
Аудио #02: 48 kHz, AC3, 5.1, 640 Kbps | Оригинал |О фильме:
Наемный убийца, на совести которого множество невинных жертв, погибает в процессе выполнения задания. Спецслужбы, используя новейшую секретную технологию, временно оживляют парня, чтобы тот помог собственному убийце завершить начатую миссию – добраться до верхушки криминального синдиката. Закоренелому преступнику, ни во что не ставящему чужую жизнь и упустившему все возможности исправить собственную, выпадает второй шанс. У бывшего киллера есть только 24 часа, чтобы совершить переоценку ценностей и искупить свою вину, а также спасти мир и, возможно, самого себя.




Режиссер: Брайан Смрз
ENG |
Оригинальное название: 24 Hours to Live
Жанр: Боевик, триллер, фэнтези

Если у вас возникли проблемы с закачкой 24 часа на жизнь / 24 Hours to Live (2017) BDRip 720p от ExKinoRay | iTunes, перейдите по ссылке - там вы найдете решение своей проблемы.

Категория: Зарубежные фильмы

 

Скачать 24 часа на жизнь / 24 Hours to Live (2017) BDRip 720p от ExKinoRay | iTunes бесплатно без регистрации

 

Информация
Посетители, находящиеся в группе Гости, не могут оставлять комментарии к данной публикации.
 
 
Скачать 24 часа на жизнь / 24 Hours to Live (2017) BDRip 720p от ExKinoRay | iTunes бесплатно без регистрацииCopyright © 2019 .