Скачать На грани добра и зла / Borderline (2014) BDRip 720p | L1 бесплатно без регистрации






Автор сценария: Оливье Маршаль

Project_Web_Mania
FRE

Описание: По автобиографическому роману бывшего комиссара полиции Гренобля Кристофа Гавы, после 25 лет безупречной службы, арестованного по обвинению в покрытии преступной деятельности по обороту наркотиков. За время содержания под стражей он столкнулся с другой стороной своей профессии...



Аудио кодек: АС3 | DTS
General
Unique ID : 251742867654518358533669757980737993029 (0xBD63E9A75FC045EC9ADFB485CC52F945)
Format : Matroska
Format version : Version 4 / Version 2
Overall bit rate : 6 613 Kbps
Writing application : Lavf57.25.100
Writing library : Lavf57.25.100

Video
ID : 1
Format : AVC
Format/Info : Advanced Video Codec
Format profile : High@L4.1
Format settings, CABAC : Yes
Format settings, ReFrames : 5 frames
Codec ID : V_MPEG4/ISO/AVC
Bit rate : 4 781 Kbps
Width : 1 280 pixels
Height : 720 pixels
Display aspect ratio : 16:9
Frame rate mode : Constant
Frame rate : 25.000 fps
Color space : YUV
Chroma subsampling : 4:2:0
Bit depth : 8 bits
Scan type : Progressive
Bits/(Pixel*Frame) : 0.207
Stream size : 39.0 MiB (72%)
Title : Source WIHD / PULSE
Language : French
Default : Yes
Forced : Yes
DURATION : 00:01:08.400000000
NUMBER_OF_FRAMES : 146855
NUMBER_OF_BYTES : 3853811538
_STATISTICS_WRITING_APP : mkvmerge v8.3.0 ('Over the Horizon') 64bit
_STATISTICS_WRITING_DATE_UTC : 2015-10-25 09:52:51
_STATISTICS_TAGS : BPS DURATION NUMBER_OF_FRAMES NUMBER_OF_BYTES

Audio #1
ID : 2
Format : AC-3
Format/Info : Audio Coding 3
Mode extension : CM (complete main)
Format settings, Endianness : Big
Codec ID : A_AC3
Bit rate mode : Constant
Bit rate : 192 Kbps
Channel(s) : 2 channels
Channel positions : Front: L R
Sampling rate : 44.1 KHz
Compression mode : Lossy
Stream size : 1.57 MiB (3%)
Language : Russian
Default : Yes
Forced : Yes
DURATION : 00:01:08.220000000

Audio #2
ID : 3
Format : DTS
Format/Info : Digital Theater Systems
Mode : 16
Format settings, Endianness : Big
Codec ID : A_DTS
Bit rate mode : Constant
Bit rate : 1 509 Kbps
Channel(s) : 2 channels
Channel positions : Front: L R
Sampling rate : 48.0 KHz
Bit depth : 24 bits
Compression mode : Lossy
Stream size : 12.3 MiB (23%)
Title : Source WIHD / PULSE
Language : French
Default : No
Forced : No
_STATISTICS_WRITING_APP : mkvmerge v8.3.0 ('Over the Horizon') 64bit
Скриншоты ЗалилВидео кодек: AVC
RUS
Год выпуска: 2014
Аудио №1: 44.1 kHz, AC3 Dolby Digital, 2/0 (L,R) ch, ~192.00 kbps |В ролях: Брюно Волкович, Катрин Маршаль, Патрик Каталифо, Лор Марсак, Венсан Жуан, Паскаль Элсо, Жан Делл, Жак Перрен

Аудио №2: 48.0 kHz, Digital Theater Systems, 2/0 (L,R) ch, ~1509 kbps |Качество: BDRip 720p
Субтитры: нет

Дата премьеры (мир): 5 октября 2014



Media InfoПроизводство: Alchimic Films, Bad Company, Euro Media France
Перевод: Любительский (одноголосый, закадровый) |Zha-4k-e ОценкаНикто ещё не поставил оценку КатегорияЗарубежные фильмы Раздают1 Качают0 Сидер замечен08-07-2019 18:19:13 (15 минут назад) Добавлен13-06-2016 7:29:07 (37 месяцев назад) Размер4.75 GB (5103402740 Bytes)Видео: 1280x720 (16:9), 25.000 fps, MPEG-4 AVC ~4 781 kbps avg
На грани добра и зла /Borderline

Режиссер: Оливье Маршаль
Формат: МКV
Продолжительность: 01:37:54

Жанр: триллер
Страна: Франция

Если у вас возникли проблемы с закачкой На грани добра и зла / Borderline (2014) BDRip 720p | L1, перейдите по ссылке - там вы найдете решение своей проблемы.

Категория: Зарубежные фильмы

 

Скачать На грани добра и зла / Borderline (2014) BDRip 720p | L1 бесплатно без регистрации

 

Информация
Посетители, находящиеся в группе Гости, не могут оставлять комментарии к данной публикации.
 
 
Скачать На грани добра и зла / Borderline (2014) BDRip 720p | L1 бесплатно без регистрацииCopyright © 2019 .