Скачать Леди и бродяга / Lady and the Tramp (1955) BDRip от New-Team | D бесплатно без регистрации





Жанр: Мультипликация
Продолжительность: 01:16:23

Субтитры: нет

AVPStudio ОценкаНикто ещё не поставил оценку КатегорияМультипликация Раздают0 Качают0 Сидер замечен08-07-2019 21:19:12 (1 час назад) Добавлен26-09-2012 22:34:32 (83 месяца назад) Размер743.29 MB (779393024 Bytes)Перевод: Профессиональный (дублированный)
Аудио: MP3, 2 ch, 128 Кбит/сек, 48,0 КГц
MediaInfо
Общее
Полное имя : Ledi.i.Brodyaga.1955.DLedi.i.Brodyaga.1955.D.BDRip.745MB.avi
Формат : AVI
Формат/Информация : Audio Video Interleave
Размер файла : 743 Мбайт
Продолжительность : 1 ч. 16 м.
Общий поток : 1360 Кбит/сек
Программа кодирования : VirtualDubMod 1.5.10.3 | www.virtualdub-fr.org || (build 2550/release)
Библиотека кодирования : VirtualDubMod build 2550/release

Видео
Идентификатор : 0
Формат : MPEG-4 Visual
Профиль формата : Advanced Simple@L5
Параметр BVOP формата : 1
Параметр QPel формата : Нет
Параметр GMC формата : Без точки перехода
Параметр матрицы формата : Выборочная
Идентификатор кодека : XVID
Идентификатор кодека/Подсказка : XviD
Продолжительность : 1 ч. 16 м.
Битрейт : 1223 Кбит/сек
Ширина : 704 пикселя
Высота : 272 пикселя
Соотношение сторон : 2,588
Частота кадров : 23,976 кадра/сек
Цветовое пространство : YUV
Субдискретизация насыщенности : 4:2:0
Битовая глубина : 8 бит
Тип развёртки : Прогрессивная
Метод сжатия : С потерями
Бит/(Пиксели*Кадры) : 0.266
Размер потока : 668 Мбайт (90%)
Библиотека кодирования : XviD 64

Аудио
Идентификатор : 1
Формат : MPEG Audio
Версия формата : Version 1
Профиль формата : Layer 3
Идентификатор кодека : 55
Идентификатор кодека/Подсказка : MP3
Продолжительность : 1 ч. 16 м.
Вид битрейта : Постоянный
Битрейт : 128 Кбит/сек
Каналы : 2 канала
Частота : 48,0 КГц
Метод сжатия : С потерями
Размер потока : 69,9 Мбайт (9%)
Выравнивание : Соединение по промежуткам
Продолжительность промежутка : 42 мс. (1,00 видеокадр)
Время предзагрузки промежутка : 504 мс.
Библиотека кодирования : LAME3.99.1

Скриншоты

ЗалилОписание: Трогательная и захватывающая история сближения двух абсолютно разных собак — породистой комнатной неженки и бездомного дворняги. Изящная и пушистая как игрушка, кокер-спаниельша Леди была любимицей хозяев, пока в их семье не появился младенец. Одетый намордник стал последней каплей, подтолкнувшей обиженную героиню к бегству. Но на улице ее поджидала целая куча опасностей, о существовании которых она даже не подозревала. И тогда на помощь миниатюрной черноглазой красотке пришел разбитной пес Бродяга, благородство которого было не в породе, а в душе. Проявив отзывчивость и мужество, он в конце концов завоевал сердце нежной Леди.



Страна: США
Видео: 704x272 (2.588:1), 23,976 fps, XviD 64 ~ 1223 kbps avg, 0.266 bit/pixel
Год выпуска: 1955
Качество:Формат: AVI

BDRemux 1080p
BDRip
Режиссёр: Клайд Джероними, Уилфред Джексон / Clyde Geronimi, Wilfred Jackson

Оригинальная аудиодорожка: нет
Исходник:Роли озвучивали: Пегги Ли, Барбара Ладди, Ларри Робертс, Билл Томпсон, Билл Бауком, Стэн Фреберг, Верна Фелтон, Алан Рид, Джордж Гивот, Ли Миллар, The Mellomen

Если у вас возникли проблемы с закачкой Леди и бродяга / Lady and the Tramp (1955) BDRip от New-Team | D, перейдите по ссылке - там вы найдете решение своей проблемы.

Категория: Мультипликация

 

Скачать Леди и бродяга / Lady and the Tramp (1955) BDRip от New-Team | D бесплатно без регистрации

 

Информация
Посетители, находящиеся в группе Гости, не могут оставлять комментарии к данной публикации.
 
 
Скачать Леди и бродяга / Lady and the Tramp (1955) BDRip от New-Team | D бесплатно без регистрацииCopyright © 2019 .