Скачать Плохой Санта / Bad Santa (2003) BDRip от New-Team | Гоблин бесплатно без регистрации





Описание: Два жулика разыгрывают представления и презентации в крупных магазинах, а затем их обворовывают. Один из них выступает под видом Санта Клауса (Деда Мороза по нашему). Очаровательная черная комедия от голливудских мастеров.



Год выпуска: 2003
Аудио кодек: MP3
В ролях: Билли Боб Торнтон, Тони Кокс, Бретт Келли, Лорен Грэм, Лоурен Том, Берни Мак, Джон Риттер, Аджай Найду, Клорис Личмен, Мэтт Уолш

Видео кодек: XviD
Формат видео: AVI
Видео: 656x352 (1.86:1), 23.976 fps, XviD build 73 ~910 kbps avg, 0.16 bit/pixel
АНОНСЫ МОИХ РИПОВ! Подписываемся!

Аудио: 48 kHz, MPEG Layer 3, 2 ch, ~128.00 kbps avg
Исходник BDRemux 1080p
contineNt Оценка10 из 10 (5 голосов, самая низкая оценка - 10, самая высокая - 10) КатегорияЗарубежные фильмы Раздают1 Качают0 Сидер замечен08-07-2019 19:19:12 (4 минуты назад) Добавлен23-12-2013 10:33:34 (67 месяцев назад) Размер744.13 MB (780275712 Bytes)Раздача от:
Скриншоты
MID:Мои рипыBad.Santa.2003.BDRip.GOBLIN.745mb.dexter_lex.avi
General
Complete name : D:Мои рипыBad.Santa.2003.BDRip.GOBLIN.745mb.dexter_lex.avi
Format : AVI
Format/Info : Audio Video Interleave
File size : 744 MiB
Duration : 1h 39mn
Overall bit rate : 1 048 Kbps
Writing application : VirtualDubMod 1.5.10.3 | www.virtualdub-fr.org || (build 2550/release)
Writing library : VirtualDubMod build 2550/release
Video #0
ID : 0
Format : MPEG-4 Visual
Format profile : Advanced Simple@L5
Format settings, BVOP : 1
Format settings, QPel : No
Format settings, GMC : No warppoints
Format settings, Matrix : Custom
Codec ID : XVID
Codec ID/Hint : XviD
Duration : 1h 39mn
Bit rate : 911 Kbps
Width : 656 pixels
Height : 352 pixels
Display aspect ratio : 1.864
Frame rate : 23.976 fps
Color space : YUV
Chroma subsampling : 4:2:0
Bit depth : 8 bits
Scan type : Progressive
Compression mode : Lossy
Bits/(Pixel*Frame) : 0.164
Stream size : 647 MiB (87%)
Writing library : XviD 73
Audio #1
ID : 1
Format : MPEG Audio
Format version : Version 1
Format profile : Layer 3
Codec ID : 55
Codec ID/Hint : MP3
Duration : 1h 39mn
Bit rate mode : Constant
Bit rate : 128 Kbps
Channel(s) : 2 channels
Sampling rate : 48.0 KHz
Compression mode : Lossy
Stream size : 90.9 MiB (12%)
Alignment : Aligned on interleaves
Interleave, duration : 42 ms (1.00 video frame)
Interleave, preload duration : 504 ms
Writing library : LAME3.99r
Encoding settings : -m s -V 4 -q 2 -lowpass 17 -b 128

ЗалилКачество видео: BDRip -Cубтитры: нет
Продолжительность: 01:39:16
Режиссер: Терри Цвигофф / Terry Zwigoff

Плохой Санта / Bad Santa

Оригинальная аудиодорожка: нет

Страна: США
Перевод: Авторский (одноголосый закадровый) Гоблин
Жанр: комедия

Если у вас возникли проблемы с закачкой Плохой Санта / Bad Santa (2003) BDRip от New-Team | Гоблин, перейдите по ссылке - там вы найдете решение своей проблемы.

Категория: Зарубежные фильмы

 

Скачать Плохой Санта / Bad Santa (2003) BDRip от New-Team | Гоблин бесплатно без регистрации

 

Информация
Посетители, находящиеся в группе Гости, не могут оставлять комментарии к данной публикации.
 
 
Скачать Плохой Санта / Bad Santa (2003) BDRip от New-Team | Гоблин бесплатно без регистрацииCopyright © 2019 .