Скачать Евангелион по-новому 1.11: Ты (Не) Одинок / Evangelion Shin Gekijouban: Jo ( 2007 ) BDRip 1080p от Freeisland бесплатно без регистрации




Монтаж: Хироши Окуда

Аудио #2: AC3, 448 Kbps, 48.0 KHz, 6 ch (Japanese)


taty75 Оценка10 из 10 (7 голосов, самая низкая оценка - 10, самая высокая - 10) КатегорияАниме Раздают0 Качают0 Сидер замечен08-07-2019 5:19:12 (10 часов назад) Добавлен26-03-2013 17:14:14 (76 месяцев назад) Размер6.39 GB (6861136366 Bytes)Сборы в США: $107 797
Описание: Обрушившееся на Землю катастрофа названная «Вторым Ударом» погубила большую часть человечества. После многих лет ушедших на восстановление после этого ужасного бедствия, на человечество неожиданно нападают загадочные существа, называемые Ангелами. 14-летний подросток, Икари Синдзи, получает от отца, являющегося командующим секретной военной организации Nerv, приглашение в город-крепость Токио-3. Во время первого нападения Ангела, когда Синдзи прибывает в Токио-3 — отец требует от него, чтобы тот немедленно приступил к пилотированию Евангелиона, — человекоподобного робота, разработанного в режиме секретности. Синдзи испуган и отказывается сесть в машину. Но видя, что единственным человеком способным пилотировать её оказывается тяжело раненая Рэй Аянами, Синдзи соглашается занять место пилота.

Видео кодек: AVC
Аудио кодеk: AC3
Отдельно в папке:
1. AC3, 448 Kbps, 48.0 KHz, 6 ch (RUS АVO - Kasumi)
2. AC3, 448 Kbps, 48.0 KHz, 6 ch (RUS AVO - Харука)


МедиаИнфо[Information] [26.03.2013 13:28:53]

-[NoImage] x264 [info]: frame I:1486 Avg QP: 9.57 size:289798
-[NoImage] x264 [info]: frame P:43474 Avg QP:11.29 size: 74715
-[NoImage] x264 [info]: frame B:100301 Avg QP:13.44 size: 18181

General
Complete name : Evangelion.1.11.2007.BDRip.1080p.mkv
Format : Matroska
File size : 5.76 GiB
Duration : 1h 40mn
Overall bit rate : 8 164 Kbps
Encoded date : UTC 2013-03-26 11:48:56
Writing application : mkvmerge v5.3.0 ('I could have danced') built on Feb 9 2012 10:38:07
Writing library : libebml v1.2.3 + libmatroska v1.3.0

Video
ID : 1
Format : AVC
Format/Info : Advanced Video Codec
Format profile : High@L4.1
Format settings, CABAC : Yes
Format settings, ReFrames : 4 frames
Muxing mode : Container profile=Unknown@4.1
Codec ID : V_MPEG4/ISO/AVC
Duration : 1h 40mn
Bit rate : 7 265 Kbps
Width : 1 920 pixels
Height : 1 080 pixels
Display aspect ratio : 16:9
Frame rate : 23.976 fps
Color space : YUV
Chroma subsampling : 4:2:0
Bit depth : 8 bits
Scan type : Progressive
Bits/(Pixel*Frame) : 0.146
Stream size : 5.01 GiB (87%)
Writing library : x264 core 129 r2230 1cffe9f
Encoding settings : cabac=1 / ref=4 / deblock=1:0:0 / analyse=0x3:0x133 / me=umh / subme=11 / psy=1 / psy_rd=1.00:0.00 / mixed_ref=1 / me_range=48 / chroma_me=1 / trellis=2 / 8x8dct=1 / cqm=0 / deadzone=21,11 / fast_pskip=0 / chroma_qp_offset=-2 / threads=6 / lookahead_threads=1 / sliced_threads=0 / nr=0 / decimate=1 / interlaced=0 / bluray_compat=0 / constrained_intra=0 / bframes=8 / b_pyramid=2 / b_adapt=2 / b_bias=0 / direct=3 / weightb=1 / open_gop=0 / weightp=2 / keyint=230 / keyint_min=23 / scenecut=40 / intra_refresh=0 / rc=2pass / mbtree=0 / bitrate=7265 / ratetol=2.0 / qcomp=1.00 / qpmin=0 / qpmax=51 / qpstep=4 / cplxblur=20.0 / qblur=0.5 / ip_ratio=1.40 / pb_ratio=1.30 / aq=1:1.00
Color primaries : BT.709-5, BT.1361, IEC 61966-2-4, SMPTE RP177
Transfer characteristics : BT.709-5, BT.1361
Matrix coefficients : BT.709-5, BT.1361, IEC 61966-2-4 709, SMPTE RP177

Audio #1
ID : 2
Format : AC-3
Format/Info : Audio Coding 3
Mode extension : CM (complete main)
Codec ID : A_AC3
Duration : 1h 40mn
Bit rate mode : Constant
Bit rate : 448 Kbps
Channel(s) : 6 channels
Channel positions : Front: L C R, Side: L R, LFE
Sampling rate : 48.0 KHz
Bit depth : 16 bits
Stream size : 324 MiB (5%)
Title : Дублированный "Reanimedia"
Language : Russian

Audio #2
ID : 3
Format : AC-3
Format/Info : Audio Coding 3
Mode extension : CM (complete main)
Codec ID : A_AC3
Duration : 1h 40mn
Bit rate mode : Constant
Bit rate : 448 Kbps
Channel(s) : 6 channels
Channel positions : Front: L C R, Side: L R, LFE
Sampling rate : 48.0 KHz
Bit depth : 16 bits
Stream size : 324 MiB (5%)
Language : Japanese

Text #1
ID : 4
Format : UTF-8
Codec ID : S_TEXT/UTF8
Codec ID/Info : UTF-8 Plain Text
Title : Форс.
Language : Russian

Text #2
ID : 5
Format : UTF-8
Codec ID : S_TEXT/UTF8
Codec ID/Info : UTF-8 Plain Text
Language : Russian

Menu
00:00:00.000 : en:00:00:00.000
00:02:05.793 : en:00:02:05.793
00:10:47.397 : en:00:10:47.397
00:13:29.767 : en:00:13:29.767
00:14:27.575 : en:00:14:27.575
00:17:11.698 : en:00:17:11.698
00:19:13.861 : en:00:19:13.861
00:27:34.067 : en:00:27:34.067
00:29:43.029 : en:00:29:43.029
00:30:56.939 : en:00:30:56.939
00:35:54.318 : en:00:35:54.318
00:38:00.777 : en:00:38:00.777
00:41:24.731 : en:00:41:24.731
00:42:41.434 : en:00:42:41.434
00:44:35.465 : en:00:44:35.465
00:48:57.268 : en:00:48:57.268
00:52:14.965 : en:00:52:14.965
00:53:11.521 : en:00:53:11.521
00:55:19.065 : en:00:55:19.065
00:56:38.771 : en:00:56:38.771
01:01:43.324 : en:01:01:43.324
01:03:15.291 : en:01:03:15.291
01:07:15.949 : en:01:07:15.949
01:08:54.046 : en:01:08:54.046
01:10:48.202 : en:01:10:48.202
01:14:42.770 : en:01:14:42.770
01:18:55.773 : en:01:18:55.773
01:21:17.663 : en:01:21:17.663
01:23:23.747 : en:01:23:23.747
01:28:11.161 : en:01:28:11.161
01:33:23.805 : en:01:33:23.805
01:35:23.385 : en:01:35:23.385
01:40:23.893 : en:01:40:23.893

Скриншоты


Субтитры: Russian (UTF-8), Russian (UTF-8)

Качество: BDRip
Жанр: аниме, мультфильм, фантастика, боевик, ...
Страна: Япония
Релиз от: ЗалилАудио #1: AC3, 448 Kbps, 48.0 KHz, 6 ch (RUS Dub - "Reanimedia")
Композитор: Сиро Сагису
Видео: 1920x1080 (16:9), 23.976 fps, AVC, 7 265 Kbps
Художник: Хидеаки Анно, Хироши Като, Тацуя Кусида
Рейтинг MPAA: Детям до 13 лет просмотр не желателен



Год выпуска: 2007
Продюсер: Тосимичи Оцуки, Джастин Кук, Ген Фукунага, ...
Зрители: Япония 236.2 тыс. , Франция 2.1 тыс.
Перевод: Профессиональный (дублированный)
Evangerion shin gekijoban: Jo


Сценарий: Хидеаки Анно, Ёсики Сакурай
Евангелион 1.0: Ты [не] одинок
Премьера (мир): 1 сентября 2007, ...
Продолжительность: 01:40:58
Сборы в мире: + $116 042 = $223 839
Режиссер: Масаюки, Кадзуя Цурумаки, Хидеаки Анно
Формат: MKV
Релиз на DVD: 9 февраля 2012, «Мистерия Звука», ...
В ролях: Мегуми Огата / Megumi Ogata (Shinji Ikari, озвучка), Мэгуми Хаясибара / Megumi Hayashibara (Rei Ayanami / Yui Ikari / Pen Pen, озвучка), Котоно Мицуйси / Kotono Mitsuishi (Misato Katsuragi, озвучка), Юрико Ямагути / Yuriko Yamaguchi (Ritsuko Akagi, озвучка), Акира Исида / Akira Ishida (Kaworu Nagisa, озвучка), Фумихико Татики / Fumihiko Tachiki (Gendo Ikari, озвучка), Мотому Киёкава / Motomu Kiyokawa (Kozo Fuyutsuki, озвучка), Мики Нагасава / Miki Nagasawa (Maya Ibuki, озвучка)


Если у вас возникли проблемы с закачкой Евангелион по-новому 1.11: Ты (Не) Одинок / Evangelion Shin Gekijouban: Jo ( 2007 ) BDRip 1080p от Freeisland, перейдите по ссылке - там вы найдете решение своей проблемы.

Категория: Аниме

 

Скачать Евангелион по-новому 1.11: Ты (Не) Одинок / Evangelion Shin Gekijouban: Jo ( 2007 ) BDRip 1080p от Freeisland бесплатно без регистрации

 

Информация
Посетители, находящиеся в группе Гости, не могут оставлять комментарии к данной публикации.
 
 
Скачать Евангелион по-новому 1.11: Ты (Не) Одинок / Evangelion Shin Gekijouban: Jo ( 2007 ) BDRip 1080p от Freeisland бесплатно без регистрацииCopyright © 2019 .