Скачать Летящие сквозь ночь / Nightflyers [S01] (2018) WEBRip 1080p | TVShows бесплатно без регистрации






Режиссеры: Эндрю МакКарти, Марк Тондерай, Майкл Дж. Бассетт
Zha-4k-e ОценкаНикто ещё не поставил оценку КатегорияЗарубежные сериалы Раздают2 Качают1 Сидер замечен08-07-2019 18:19:13 (4 минуты назад) Добавлен27-12-2018 15:28:04 (6 месяцев назад) Размер14.70 GB (15780639680 Bytes)Страна: США
Видео: 1920x1080 (16:9), 23.976 fps, MPEG-4 AVC ~3 100 kbps avg
Аудио №2: 48.0 kHz, Enhanced Audio Coding 3, 3/2 (L,C,R,l,r) + LFE ch, ~640 kbps |Nightflyers

Видео кодек: AVC
ENG
Аудио №1: 48.0 kHz, AC3 Dolby Digital, 3/2 (L,C,R,l,r) + LFE ch, ~384 kbps |Качество: WEBRip 1080p
Летящие сквозь ночь /Формат: МКV
TVShows
Описание: История о группе исследователей, которые отправляются на далекую планету, чтобы найти загадочное существо, но в пути сталкиваются с другими опасностями...



Формат субтитров: UTF-8 Plain Text

Производство: NetFlix, Syfy, Hypnotic, Fevre River Jacket Co., Universal Cable Productions
Дата премьеры (мир): 2 декабря 2018



Media InfoRUS / MVO
Аудио кодек: АС3 | E-AC3
В ролях: Оуэн Мэкен, Дэвид Аджала, Джоди Смит, Энгус Сэмпсон, Сэм Страйк, Майя Эшет, Брайан Ф. О’Бирн, Гретхен Мол, Бронте Кармайкл

General
Unique ID : 39024423143947910794838562987686792154 (0x1D5BD49C45E362087AD422AA9EC48BDA)
Complete name : Nightflyers.S01E02.1080p.TVShows.mkv
Format : Matroska
Format version : Version 4 / Version 2
File size : 1.24 GiB
Duration : 43 min 7 s
Overall bit rate : 4 130 kb/s
Encoded date : UTC 2018-12-18 11:08:56
Writing application : mkvmerge v28.2.0 ('The Awakening') 32-bit
Writing library : libebml v1.3.6 + libmatroska v1.4.9

Video
ID : 1
Format : AVC
Format/Info : Advanced Video Codec
Format profile : High@L4
Format settings, CABAC : Yes
Format settings, RefFrames : 4 frames
Codec ID : V_MPEG4/ISO/AVC
Duration : 43 min 7 s
Bit rate : 3 104 kb/s
Width : 1 920 pixels
Height : 1 080 pixels
Display aspect ratio : 16:9
Frame rate mode : Constant
Frame rate : 23.976 (24000/1001) FPS
Color space : YUV
Chroma subsampling : 4:2:0
Bit depth : 8 bits
Scan type : Progressive
Bits/(Pixel*Frame) : 0.062
Stream size : 957 MiB (75%)
Default : Yes
Forced : No
Color range : Limited
Color primaries : BT.709
Transfer characteristics : BT.709
Matrix coefficients : BT.709

Audio #1
ID : 2
Format : AC-3
Format/Info : Audio Coding 3
Format settings, Endianness : Big
Codec ID : A_AC3
Duration : 43 min 7 s
Bit rate mode : Constant
Bit rate : 384 kb/s
Channel(s) : 6 channels
Channel positions : Front: L C R, Side: L R, LFE
Sampling rate : 48.0 kHz
Frame rate : 31.250 FPS (1536 SPF)
Bit depth : 16 bits
Compression mode : Lossy
Stream size : 118 MiB (9%)
Title : TVShows
Language : Russian
Service kind : Complete Main
Default : Yes
Forced : Yes

Audio #2
ID : 3
Format : E-AC-3
Format/Info : Enhanced Audio Coding 3
Format settings, Endianness : Big
Codec ID : A_EAC3
Duration : 43 min 7 s
Bit rate mode : Constant
Bit rate : 640 kb/s
Channel(s) : 6 channels
Channel positions : Front: L C R, Side: L R, LFE
Sampling rate : 48.0 kHz
Frame rate : 187.500 FPS (256 SPF)
Compression mode : Lossy
Stream size : 197 MiB (15%)
Title : Original
Language : English
Service kind : Complete Main
Default : No
Forced : No

Text
ID : 4
Format : UTF-8
Codec ID : S_TEXT/UTF8
Codec ID/Info : UTF-8 Plain Text
Duration : 42 min 31 s
Bit rate : 63 b/s
Count of elements : 792
Stream size : 19.7 KiB (0%)
Title : English
Language : English
Default : No
Forced : NoСкриншоты ЗалилЖанр: ужасы, фантастика
Продолжительность: 10х ~00:44:00

Год выпуска: 2018
Перевод: Профессиональный (многоголосый, закадровый) |Субтитры: английские

Если у вас возникли проблемы с закачкой Летящие сквозь ночь / Nightflyers [S01] (2018) WEBRip 1080p | TVShows, перейдите по ссылке - там вы найдете решение своей проблемы.

Категория: Зарубежные сериалы

 

Скачать Летящие сквозь ночь / Nightflyers [S01] (2018) WEBRip 1080p | TVShows бесплатно без регистрации

 

Информация
Посетители, находящиеся в группе Гости, не могут оставлять комментарии к данной публикации.
 
 
Скачать Летящие сквозь ночь / Nightflyers [S01] (2018) WEBRip 1080p | TVShows бесплатно без регистрацииCopyright © 2019 .