Скачать Цепь / Cord / Hide and Seek (2000) BDRip 720p от KORSAR | P, A бесплатно без регистрации






Информация о фильме
MZMA407 Оценка10 из 10 (1 голосов, самая низкая оценка - 10, самая высокая - 10) КатегорияЗарубежные фильмы Раздают7 Качают1 Сидер замечен08-07-2019 18:19:13 (4 минуты назад) Добавлен28-10-2018 16:12:30 (8 месяцев назад) Размер4.62 GB (4957489097 Bytes)Аудио #2: AC3, 2 ch, 192 Кбит/сек | Русский, авторский (одноголосый закадровый) Петр Карцев
В ролях: Дэрил Ханна, Дженнифер Тилли, Брюс Гринвуд, Шэрон Байер, Винсент Галло, Блэк Джоанна, Чэд Брюс

О фильме: Иногда материнская любовь не знает границ. Молодая семейная пара, Энн и Джек, несколько лет безуспешно пытаются стать родителями. У Хелен и Фрэнка та же проблема, но они выбирают другой путь ее решения. Похитив Энн и инсценировав ее смерть, они надеются, что она выносит их ребенка, а затем от нее можно будет избавиться. Но когда из трех родителей двое стоят на грани безумия, материнство оборачивается не рождением, а смертью...

Релиз от: ЗалилНавигация по главам: Есть

Год выпуска: 2000
Субтитры: Нет
Аудио #3: AC3, 2 ch, 384 Кбит/сек | Английский, оригинал



Скриншоты
Инфо-файлx264 [info]: frame I:841 Avg QP:16.84 size: 96364
x264 [info]: frame P:29594 Avg QP:18.14 size: 50290
x264 [info]: frame B:113202 Avg QP:20.25 size: 24834
-----------------------------------------------------
Общее
Уникальный идентификатор : 245310854060773391198737997992289104800 (0xB88D26E65198E900B4F79919120FF3A0)
Полное имя : Цепь.2000.BDRip.720p.KORSAR.mkv
Формат : Matroska
Версия формата : Version 2
Размер файла : 4,62 Гбайт
Продолжительность : 1 ч. 39 м.
Общий поток : 6620 Кбит/сек
Дата кодирования : UTC 2018-10-27 19:04:11
Программа кодирования : mkvmerge v5.8.0 ('No Sleep / Pillow') built on Sep 2 2012 15:37:04
Библиотека кодирования : libebml v1.2.3 + libmatroska v1.3.0

Видео
Идентификатор : 1
Формат : AVC
Формат/Информация : Advanced Video Codec
Профиль формата : High@L4.1
Настройки формата : CABAC / 9 Ref Frames
Параметр CABAC формата : Да
Параметр RefFrames формата : 9 кадров
Идентификатор кодека : V_MPEG4/ISO/AVC
Продолжительность : 1 ч. 39 м.
Битрейт : 5861 Кбит/сек
Ширина : 1274 пикселя
Высота : 690 пикселей
Соотношение сторон : 1,85:1
Режим частоты кадров : Постоянный
Частота кадров : 23,976 (24000/1001) кадра/сек
Цветовое пространство : YUV
Субдискретизация насыщенности : 4:2:0
Битовая глубина : 8 бит
Тип развёртки : Прогрессивная
Бит/(Пиксели*Кадры) : 0.278
Размер потока : 3,99 Гбайт (86%)
Библиотека кодирования : x264 core 152 r2851kMod ba24899
Настройки программы : cabac=1 / ref=9 / deblock=1:-2:-2 / analyse=0x3:0x113 / me=umh / subme=11 / psy=1 / fade_compensate=0.00 / psy_rd=1.00:0.00 / mixed_ref=1 / me_range=48 / chroma_me=1 / trellis=2 / 8x8dct=1 / cqm=0 / deadzone=21,11 / fast_pskip=0 / chroma_qp_offset=-2 / threads=6 / lookahead_threads=1 / sliced_threads=0 / nr=0 / decimate=0 / interlaced=0 / bluray_compat=0 / constrained_intra=0 / bframes=16 / b_pyramid=2 / b_adapt=2 / b_bias=0 / direct=3 / weightb=1 / open_gop=0 / weightp=2 / keyint=240 / keyint_min=23 / scenecut=40 / intra_refresh=0 / rc_lookahead=40 / rc=2pass / mbtree=0 / bitrate=5861 / ratetol=1.0 / qcomp=0.60 / qpmin=0 / qpmax=69 / qpstep=4 / cplxblur=20.0 / qblur=0.5 / vbv_maxrate=50000 / vbv_bufsize=62500 / nal_hrd=none / filler=0 / ip_ratio=1.15 / pb_ratio=1.30 / aq=1:0.70
Язык : English
По умолчанию : Да
Принудительно : Нет
Цветовой диапазон : Limited
Основные цвета : BT.709
Характеристики трансфера : BT.709
Коэффициенты матрицы : BT.709

Аудио #1
Идентификатор : 2
Формат : AC-3
Формат/Информация : Audio Coding 3
Идентификатор кодека : A_AC3
Продолжительность : 1 ч. 39 м.
Вид битрейта : Постоянный
Битрейт : 192 Кбит/сек
Каналы : 2 канала
Расположение каналов : Front: L R
Частота : 48,0 КГц
Частота кадров : 31,250 кадров/сек (1536 SPF)
Битовая глубина : 16 бит
Метод сжатия : С потерями
Размер потока : 137 Мбайт (3%)
Заголовок : MVO
Язык : Russian
По умолчанию : Да
Принудительно : Нет

Аудио #2
Идентификатор : 3
Формат : AC-3
Формат/Информация : Audio Coding 3
Идентификатор кодека : A_AC3
Продолжительность : 1 ч. 39 м.
Вид битрейта : Постоянный
Битрейт : 192 Кбит/сек
Каналы : 2 канала
Расположение каналов : Front: L R
Частота : 48,0 КГц
Частота кадров : 31,250 кадров/сек (1536 SPF)
Битовая глубина : 16 бит
Метод сжатия : С потерями
Размер потока : 137 Мбайт (3%)
Заголовок : AVO | П. Карцев
Язык : Russian
По умолчанию : Нет
Принудительно : Нет

Аудио #3
Идентификатор : 4
Формат : AC-3
Формат/Информация : Audio Coding 3
Идентификатор кодека : A_AC3
Продолжительность : 1 ч. 39 м.
Вид битрейта : Постоянный
Битрейт : 384 Кбит/сек
Каналы : 2 канала
Расположение каналов : Front: L R
Частота : 48,0 КГц
Частота кадров : 31,250 кадров/сек (1536 SPF)
Битовая глубина : 16 бит
Метод сжатия : С потерями
Размер потока : 274 Мбайт (6%)
Заголовок : Original
Язык : English
По умолчанию : Нет
Принудительно : Нет

Меню
00:00:00.000 : en:01. Kidnapped
00:03:02.808 : en:02. Basement
00:07:05.100 : en:03. Pendant
00:10:37.846 : en:04. Veal
00:14:09.224 : en:05. Failure
00:18:15.720 : en:06. Nothing
00:21:20.705 : en:07. Lesson
00:27:41.753 : en:08. Heartbeat
00:31:28.012 : en:09. Hostility
00:35:55.112 : en:10. Lobster
00:39:24.125 : en:11. Exercise
00:43:11.318 : en:12. Spray
00:47:24.888 : en:13. Mother
00:50:55.682 : en:14. Diapers
00:55:54.731 : en:15. Equipment
00:59:11.711 : en:16. Slugger
01:02:43.373 : en:17. Unique
01:07:25.688 : en:18. Doctor
01:13:12.167 : en:19. Keys
01:17:27.239 : en:20. Phone Call
01:21:27.896 : en:21. Tractors
01:27:11.172 : en:22. Surprise
01:31:46.848 : en:23. Show-Down
01:36:55.055 : en:24. End Credits
Скачать сэмплTsepj.2000.BDRip.720p.KORSAR_sample.mkv
Жанр: Триллер, драма, криминал
Выпущено: Канада, Trimark Pictures, Blue Rider Productions, GFT-Paquin Entertainment
Видео: MPEG-4 AVC, 5861 Кбит/сек, 1274x690, 23,976 кадра/сек
Продолжительность: 01:39:51
Перевод: Профессиональный многоголосый, авторский
Аудио #1: AC3, 2 ch, 192 Кбит/сек | Русский, профессиональный (многоголосый закадровый) ТВ-3
Название: Цепь
Режиссер: Сидни Дж. Фьюри
Оригинальное название: Cord / Hide and Seek
Качество: BDRip 720p

Если у вас возникли проблемы с закачкой Цепь / Cord / Hide and Seek (2000) BDRip 720p от KORSAR | P, A, перейдите по ссылке - там вы найдете решение своей проблемы.

Категория: Зарубежные фильмы

 

Скачать Цепь / Cord / Hide and Seek (2000) BDRip 720p от KORSAR | P, A бесплатно без регистрации

 

Информация
Посетители, находящиеся в группе Гости, не могут оставлять комментарии к данной публикации.
 
 
Скачать Цепь / Cord / Hide and Seek (2000) BDRip 720p от KORSAR | P, A бесплатно без регистрацииCopyright © 2019 .