Скачать История рыцаря / A Knight's Tale (2001) WEB-DLRip-AVC | D, P | Open Matte бесплатно без регистрации






Информация о фильме
О фильме:
Он не подчинялся ни одному правилу, ибо был создан для того, чтобы их нарушать. После гибели своего господина слуга Уильям решается на отчаянную авантюру. Юноше удается изменить свою родословную и, происвоив себе доспехи и оружие ушедшего хозяина, предстать перед публикой молодым и родовитым рыцарем Ульрихом фон Лихтенштейном. Теперь в новом качестве ему предстоит доказывать свое благородное происхождение на рыцарских турнирах копьем и мечом. Отвага и решимость сэра Уильяма закалилась в бесчисленных схватках. Но в качестве последнего испытания пылкому сердцу великого самозванца послана страстная любовь, которой под силу выбить из седла самого неустрашимого воина...



Перевод: Дублированный + профессиональный (многоголосый, закадровый)
Название: История рыцаря
Оригинальное название: A Knight's Tale
Год выхода: 2001
Студия: Columbia Pictures Corporation
Страна: США
В ролях: Хит Леджер, Руфус Сьюэлл, Шаннин Соссамон, Пол Беттани, Лора Фрейзер, Марк Эдди, Алан Тьюдик, Беренис Бежо, Скотт Хэнди, Джеймс Пьюрфой, Ли Конвелл, Кристофер Кейзнов, Стив О’Доннелл, Джонатан Слингер, Ник Бримбл, Карел Добры, Филип Ленковски, Роджер Эштон-Гриффитс, Петр Мейссел, Мэттью Миллс

Продолжительность: 02:12:22
Жанр: Приключения, мелодрама, комедия
-=DoMiNo=- Оценка9.3 из 10 (4 голосов, самая низкая оценка - 7, самая высокая - 10) КатегорияЗарубежные фильмы Раздают0 Качают1 Сидер замечен08-07-2019 10:19:13 (3 часа назад) Добавлен20-05-2019 10:25:39 (2 месяца назад) Размер3.70 GB (3968520389 Bytes)Аудио #2: AC3, 6 ch, 448 Кбит/с - MVO [Blu-ray CEE]
Качество: WEB-DLRip-AVC | Open Matte
***Исходник видео: Amazon STARZ - периодически появляется логотип.
Субтитры: Русские, английские

Аудио #1: AC3, 2 ch, 224 Кбит/с - DUB
Режиссер: Брайан Хелгеленд
Видео: 1024x576 at 23.976 fps, High@L4.1, ~3065 kbps
Аудио #3: AC3, 2 ch, 192 Кбит/с - MVO [СТС/Первый канал]

***Релиз от: -=DoMiNo=-

Сравнение BLU-RAY (EUR) vs WEB-DL - Open mattehttp://www.framecompare.com/image-compare/screenshotcomparison/M1MMNNNUM/IGeneral
Unique ID : 136078111404238836933410708058898427569 (0x665FB0E24A316C0D675EC2E154FBEEB1)
Complete name : История рыцаря_(2001)_WEB_DLRIP-AVC_O.M_[-=DoMiNo=-].mkv
Format : Matroska
Format version : Version 4
File size : 3.70 GiB
Duration : 2 h 12 min
Overall bit rate : 3 997 kb/s
Movie name : История рыцаря / A Knight's Tale (2001)
Encoded date : UTC 2019-05-20 07:10:25
Writing application : mkvmerge v34.0.0 ('Sight and Seen') 64-bit
Writing library : libebml v1.3.7 + libmatroska v1.5.0
Attachments : poster.jpg

Video
ID : 1
Format : AVC
Format/Info : Advanced Video Codec
Format profile : High@L4.1
Format settings : CABAC / 12 Ref Frames
Format settings, CABAC : Yes
Format settings, Reference : 12 frames
Codec ID : V_MPEG4/ISO/AVC
Duration : 2 h 12 min
Bit rate : 3 131 kb/s
Width : 1 024 pixels
Height : 576 pixels
Display aspect ratio : 16:9
Frame rate mode : Constant
Frame rate : 23.976 (24000/1001) FPS
Color space : YUV
Chroma subsampling : 4:2:0
Bit depth : 8 bits
Scan type : Progressive
Bits/(Pixel*Frame) : 0.221
Stream size : 2.89 GiB (78%)
Title : RIP_BY_-=DoMiNo=-
Writing library : x264 core 157 r2901M 7d0ff22
Encoding settings : cabac=1 / ref=12 / deblock=1:-3:-3 / analyse=0x3:0x133 / me=umh / subme=10 / psy=1 / psy_rd=1.00:0.00 / mixed_ref=1 / me_range=32 / chroma_me=1 / trellis=2 / 8x8dct=1 / cqm=0 / deadzone=21,11 / fast_pskip=1 / chroma_qp_offset=-2 / threads=6 / lookahead_threads=1 / sliced_threads=0 / nr=0 / decimate=1 / interlaced=0 / bluray_compat=0 / constrained_intra=0 / bframes=12 / b_pyramid=2 / b_adapt=2 / b_bias=0 / direct=1 / weightb=1 / open_gop=0 / weightp=2 / keyint=240 / keyint_min=24 / scenecut=40 / intra_refresh=0 / rc=crf / mbtree=0 / crf=19.0 / qcomp=0.70 / qpmin=15 / qpmax=69 / qpstep=4 / ip_ratio=1.40 / pb_ratio=1.30 / aq=1:1.00
Language : Russian
Default : Yes
Forced : No
Color range : Limited
Color primaries : BT.709
Transfer characteristics : BT.709
Matrix coefficients : BT.709

Audio #1
ID : 2
Format : AC-3
Format/Info : Audio Coding 3
Commercial name : Dolby Digital
Codec ID : A_AC3
Duration : 2 h 12 min
Bit rate mode : Constant
Bit rate : 224 kb/s
Channel(s) : 2 channels
Channel layout : L R
Sampling rate : 48.0 kHz
Frame rate : 31.250 FPS (1536 SPF)
Bit depth : 16 bits
Compression mode : Lossy
Stream size : 212 MiB (6%)
Title : DUB
Language : Russian
Service kind : Complete Main
Default : Yes
Forced : No

Audio #2
ID : 3
Format : AC-3
Format/Info : Audio Coding 3
Commercial name : Dolby Digital
Codec ID : A_AC3
Duration : 2 h 12 min
Bit rate mode : Constant
Bit rate : 448 kb/s
Channel(s) : 6 channels
Channel layout : L R C LFE Ls Rs
Sampling rate : 48.0 kHz
Frame rate : 31.250 FPS (1536 SPF)
Bit depth : 16 bits
Compression mode : Lossy
Stream size : 424 MiB (11%)
Title : MVO_[Blu-ray CEE]
Language : Russian
Service kind : Complete Main
Default : No
Forced : No

Audio #3
ID : 4
Format : AC-3
Format/Info : Audio Coding 3
Commercial name : Dolby Digital
Codec ID : A_AC3
Duration : 2 h 12 min
Bit rate mode : Constant
Bit rate : 192 kb/s
Channel(s) : 2 channels
Channel layout : L R
Sampling rate : 48.0 kHz
Frame rate : 31.250 FPS (1536 SPF)
Bit depth : 16 bits
Compression mode : Lossy
Stream size : 182 MiB (5%)
Title : MVO_[СТС / Первый канал]
Language : Russian
Service kind : Complete Main
Default : No
Forced : No

Text #1
ID : 5
Format : UTF-8
Codec ID : S_TEXT/UTF8
Codec ID/Info : UTF-8 Plain Text
Duration : 2 h 11 min
Bit rate : 0 b/s
Count of elements : 16
Stream size : 857 Bytes (0%)
Title : RUS_Надписи
Language : Russian
Default : No
Forced : Yes

Text #2
ID : 6
Format : UTF-8
Codec ID : S_TEXT/UTF8
Codec ID/Info : UTF-8 Plain Text
Duration : 2 h 11 min
Bit rate : 72 b/s
Count of elements : 1229
Stream size : 70.1 KiB (0%)
Title : RUS
Language : Russian
Default : Yes
Forced : No

Text #3
ID : 7
Format : UTF-8
Codec ID : S_TEXT/UTF8
Codec ID/Info : UTF-8 Plain Text
Duration : 2 h 7 min
Bit rate : 69 b/s
Count of elements : 1187
Stream size : 64.4 KiB (0%)
Title : RUS
Language : Russian
Default : No
Forced : No

Text #4
ID : 8
Format : UTF-8
Codec ID : S_TEXT/UTF8
Codec ID/Info : UTF-8 Plain Text
Duration : 2 h 11 min
Bit rate : 39 b/s
Count of elements : 1213
Stream size : 38.1 KiB (0%)
Title : ENG
Language : Finnish
Default : No
Forced : No

Menu
00:00:00.000 : :Глава 1
00:10:20.620 : :Глава 2
00:21:01.260 : :Глава 3
00:31:31.890 : :Глава 4
00:42:10.528 : :Глава 5
00:53:09.186 : :Глава 6
01:03:47.824 : :Глава 7
01:14:36.472 : :Глава 8
01:25:17.112 : :Глава 9
01:36:05.760 : :Глава 10
01:46:26.380 : :Глава 11
01:56:49.002 : :Глава 12
02:07:49.662 : :Глава 13Скриншоты ЗалилФормат: Matroska

Если у вас возникли проблемы с закачкой История рыцаря / A Knight's Tale (2001) WEB-DLRip-AVC | D, P | Open Matte, перейдите по ссылке - там вы найдете решение своей проблемы.

Категория: Зарубежные фильмы

 

Скачать История рыцаря / A Knight's Tale (2001) WEB-DLRip-AVC | D, P | Open Matte бесплатно без регистрации

 

Информация
Посетители, находящиеся в группе Гости, не могут оставлять комментарии к данной публикации.
 
 
Скачать История рыцаря / A Knight's Tale (2001) WEB-DLRip-AVC | D, P | Open Matte бесплатно без регистрацииCopyright © 2019 .