Скачать Главная сцена [02x06] (2015) SATRip бесплатно без регистрации






Информация о фильме
Название: Главная сцена
Продолжительность: ~02:00:00
Ведущие: Наргиз Закирова и Эрнест Мацкявичус
Год выхода: 2015
Перевод: Не требуется

Звук: 48000Hz stereo 192kbps

Скриншоты

MediaInfo
Общее
Полное имя : D:Glavnaya.Scena.17.10.2015.SATRip..avi
Формат : AVI
Формат/Информация : Audio Video Interleave
Размер файла : 1,68 Гбайт
Продолжительность : 2 ч. 0 м.
Общий поток : 2001 Кбит/сек
Программа кодирования : VirtualDubMod 1.5.10.3 | www.virtualdub-fr.org || (build 2550/release)
Библиотека кодирования : VirtualDubMod build 2550/release

Видео
Идентификатор : 0
Формат : MPEG-4 Visual
Профиль формата : Advanced Simple@L5
Параметр BVOP формата : 2
Параметр QPel формата : Нет
Параметр GMC формата : Без точки перехода
Параметр матрицы формата : Default (H.263)
Идентификатор кодека : XVID
Идентификатор кодека/Подсказка : XviD
Продолжительность : 2 ч. 0 м.
Битрейт : 1799 Кбит/сек
Ширина : 720 пикселей
Высота : 400 пикселей
Соотношение сторон : 16:9
Частота кадров : 25,000 кадров/сек
Цветовое пространство : YUV
Субдискретизация насыщенности : 4:2:0
Битовая глубина : 8 бит
Тип развёртки : Прогрессивная
Метод сжатия : С потерями
Бит/(Пиксели*Кадры) : 0.250
Размер потока : 1,51 Гбайт (90%)
Библиотека кодирования : XviD 73

Аудио
Идентификатор : 1
Формат : AC-3
Формат/Информация : Audio Coding 3
Расширение режима : CM (complete main)
Параметр Endianness формата : Big
Идентификатор кодека : 2000
Продолжительность : 2 ч. 0 м.
Вид битрейта : Постоянный
Битрейт : 192 Кбит/сек
Каналы : 2 канала
Расположение каналов : Front: L R
Частота : 48,0 КГц
Метод сжатия : С потерями
Размер потока : 165 Мбайт (10%)
Выравнивание : Разделение по промежуткам
Продолжительность промежутка : 40 мс. (1,00 видеокадр)
Время предзагрузки промежутка : 500 мс.



Жюри: Валерий Леонтьев, Диана Арбенина и Николай Носков.

Видео: 720x400 25.00fps 1800kbps
Кодек: XviD
Гена84 ОценкаНикто ещё не поставил оценку КатегорияТелевизор Раздают0 Качают1 Сидер замечен22-03-2019 18:19:06 (4 месяца назад) Добавлен17-10-2015 16:31:57 (45 месяцев назад) Размер1.68 GB (1801347072 Bytes)О фильме:
"Главная сцена" – это крупнейшая музыкальная академия, цель которой – поиск современных талантливых артистов, способных стать новыми звездами российской эстрады.

Релиз от: ЗалилКачество: SATRip

Если у вас возникли проблемы с закачкой Главная сцена [02x06] (2015) SATRip, перейдите по ссылке - там вы найдете решение своей проблемы.

Категория: Телевизор

 

Скачать Главная сцена [02x06] (2015) SATRip бесплатно без регистрации

 

Информация
Посетители, находящиеся в группе Гости, не могут оставлять комментарии к данной публикации.
 
 
Скачать Главная сцена [02x06] (2015) SATRip бесплатно без регистрацииCopyright © 2019 .