Скачать Потомки / The Descendants (2011) BDRip 1080p от NNNB бесплатно без регистрации




Чаптеры: Есть

Субтитры: Русские | Полные/Форсирующие, Английские | Полные
Перевод: Дублированный
Качество: BDRip 1080p (исходник Blu-ray Disc)
Сообщество:

Скриншоты
MediaInfoFormat : Matroska
Format version : Version 2
File size : 7.94 GiB
Duration : 1h 55mn
Overall bit rate : 9 886 Kbps
Movie name : Потомки.(2011).BDRip.1080p.[envy]
Encoded date : UTC 2013-10-22 19:34:15
Writing application : mkvmerge v5.8.0 ('No Sleep / Pillow') built on Sep 2 2012 15:37:04
Writing library : libebml v1.2.3 + libmatroska v1.3.0

Video
ID : 1
Format : AVC
Format/Info : Advanced Video Codec
Format profile : High@L4.1
Format settings, CABAC : Yes
Format settings, ReFrames : 5 frames
Codec ID : V_MPEG4/ISO/AVC
Duration : 1h 55mn
Bit rate : 8 810 Kbps
Width : 1 920 pixels
Height : 800 pixels
Display aspect ratio : 2.40:1
Frame rate mode : Constant
Frame rate : 23.976 fps
Color space : YUV
Chroma subsampling : 4:2:0
Bit depth : 8 bits
Scan type : Progressive
Bits/(Pixel*Frame) : 0.239
Stream size : 6.91 GiB (87%)
Title : Потомки.(2011).BDRip.1080p.[envy]
Writing library : x264 core 138 r2358 9e941d1
Encoding settings : cabac=1 / ref=5 / deblock=1:-3:-3 / analyse=0x3:0x133 / me=umh / subme=11 / psy=1 / psy_rd=1.00:0.00 / mixed_ref=1 / me_range=32 / chroma_me=1 / trellis=2 / 8x8dct=1 / cqm=0 / deadzone=21,11 / fast_pskip=0 / chroma_qp_offset=-2 / threads=12 / lookahead_threads=2 / sliced_threads=0 / nr=0 / decimate=1 / interlaced=0 / bluray_compat=0 / constrained_intra=0 / bframes=7 / b_pyramid=2 / b_adapt=2 / b_bias=0 / direct=3 / weightb=1 / open_gop=0 / weightp=2 / keyint=240 / keyint_min=23 / scenecut=40 / intra_refresh=0 / rc=2pass / mbtree=0 / bitrate=8810 / ratetol=2.0 / qcomp=0.60 / qpmin=0 / qpmax=69 / qpstep=4 / cplxblur=20.0 / qblur=0.5 / ip_ratio=1.40 / pb_ratio=1.30 / aq=1:0.70
Language : English
Default : Yes
Forced : No

Audio #1
ID : 2
Format : AC-3
Format/Info : Audio Coding 3
Mode extension : CM (complete main)
Format settings, Endianness : Big
Codec ID : A_AC3
Duration : 1h 55mn
Bit rate mode : Constant
Bit rate : 448 Kbps
Channel count : 6 channels
Channel positions : Front: L C R, Side: L R, LFE
Sampling rate : 48.0 KHz
Bit depth : 16 bits
Compression mode : Lossy
Stream size : 369 MiB (5%)
Title : Дубляж
Language : Russian
Default : Yes
Forced : No

Audio #2
ID : 3
Format : AC-3
Format/Info : Audio Coding 3
Mode extension : CM (complete main)
Format settings, Endianness : Big
Codec ID : A_AC3
Duration : 1h 55mn
Bit rate mode : Constant
Bit rate : 640 Kbps
Channel count : 6 channels
Channel positions : Front: L C R, Side: L R, LFE
Sampling rate : 48.0 KHz
Bit depth : 16 bits
Compression mode : Lossy
Stream size : 526 MiB (6%)
Title : Оригинал
Language : English
Default : No
Forced : No

Text #1
ID : 4
Format : UTF-8
Codec ID : S_TEXT/UTF8
Codec ID/Info : UTF-8 Plain Text
Title : Форсирующие
Language : Russian
Default : Yes
Forced : No

Text #2
ID : 5
Format : UTF-8
Codec ID : S_TEXT/UTF8
Codec ID/Info : UTF-8 Plain Text
Title : Полные
Language : Russian
Default : No
Forced : No

Text #3
ID : 6
Format : UTF-8
Codec ID : S_TEXT/UTF8
Codec ID/Info : UTF-8 Plain Text
Title : Full
Language : English
Default : No
Forced : No

Menu
00:00:00.000 : :Chapter 01
00:06:58.668 : :Chapter 02
00:14:22.861 : :Chapter 03
00:22:42.444 : :Chapter 04
00:29:37.859 : :Chapter 05
00:36:06.205 : :Chapter 06
00:44:42.679 : :Chapter 07
00:49:18.413 : :Chapter 08
00:53:39.132 : :Chapter 09
01:07:46.645 : :Chapter 10
01:18:39.631 : :Chapter 11
01:25:40.301 : :Chapter 12


В ролях: Джордж Клуни, Шейлин Вудли, Бо Бриджес, Джуди Грир, Роберт Форстер, Мэттью Лиллард, Амара Миллер, Ник Краузе, Патти Хасти, Грэйс А. Круз

Аудио 1: AC-3, 448 Кбит/сек, 6 канала(ов), 48,0 КГц - Дублированный / Русский
Режиссер: Александр Пэйн
Сюжет фильма
Главный герой — богатый гавайский землевладелец. Он вместе с двумя дочерьми предпринимает попытку найти любовника жены, искренне веря, что таким образом спасет семейный очаг.

Год выхода: 2011
Продолжительность: 01:55:00
envy. Оценка10 из 10 (8 голосов, самая низкая оценка - 10, самая высокая - 10) КатегорияЗарубежные фильмы Раздают1 Качают0 Сидер замечен08-07-2019 10:19:13 (6 часов назад) Добавлен23-10-2013 10:59:27 (69 месяцев назад) Размер7.94 GB (8528055320 Bytes)Видео: 1920x800, 8810 Кбит/сек, 23,976 кадр/сек, AVC, x264, High@L4.1, 2.40:1, 0.239 Бит/[Пиксели*Кадры], 2pass
Оригинальное название: The Descendants
Файл
Русское название: Потомки
Информация о фильме
Жанр: Драма, комедия
При поддержке:
ЗалилАудио 2: AC-3, 640 Кбит/сек, 6 канала(ов), 48,0 КГц - Оригинал / Английский
Автор Рипа:Выпущено: США

Если у вас возникли проблемы с закачкой Потомки / The Descendants (2011) BDRip 1080p от NNNB, перейдите по ссылке - там вы найдете решение своей проблемы.

Категория: Зарубежные фильмы

 

Скачать Потомки / The Descendants (2011) BDRip 1080p от NNNB бесплатно без регистрации

 

Информация
Посетители, находящиеся в группе Гости, не могут оставлять комментарии к данной публикации.
 
 
Скачать Потомки / The Descendants (2011) BDRip 1080p от NNNB бесплатно без регистрацииCopyright © 2019 .