Скачать Зачётный препод 3 / Fack ju Göhte 3 (2017) BDRip-AVC от OlLanDGroup | iTunes бесплатно без регистрации






Качество: BDRip-AVC
Субтитры: Английские
Реклама: Отсутствует

Перевод: Дублированный | iTunes
Жанр: Комедия

Год выпуска: 2017
Описание: Классному руководителю Зэку Мюллеру достался класс с самыми трудными подростками в Германии. Не проходит и дня, чтобы эти молодые отпрыски чего-нибудь не отмочили. Если бы не криминальное прошлое Зэка, ему бы ни за что с ними не управиться. Но этот год обещает быть особенным. На носу итоговые экзамены, а никто из учеников ни в зуб ногой в материале. А все потому, что накануне с ними побеседовал школьный специалист по профориентации и окончательно отбил у ребят охоту хоть что-то делать. Сумеет ли Зэки помочь ребятам найти мотивацию и вернуть веру в себя?



TorpedoUK ОценкаНикто ещё не поставил оценку КатегорияЗарубежные фильмы Раздают5 Качают1 Сидер замечен08-07-2019 15:19:12 (4 минуты назад) Добавлен31-05-2018 15:13:48 (13 месяца назад) Размер2.57 GB (2764089823 Bytes)Продолжительность: 01:59:31

Rip by:

MediaInfo
Общее
Уникальный идентификатор : 224182941942099801464948717137412735618 (0xA8A810683FB5F4168A1FF01EEAAFC282)
Полное имя : E:OlLanDGroupSuck.Me.Shakespeer.3.2017.BDRip(AVC).OlLanDGroup.mkv
Формат : Matroska
Версия формата : Version 4 / Version 2
Размер файла : 2,57 Гбайт
Продолжительность : 1 ч. 59 м.
Общий поток : 3083 Кбит/сек
Название фильма : Suck.Me.Shakespeer.3.2017 #TorpedoUK#
Дата кодирования : UTC 2018-05-31 10:59:30
Программа кодирования : mkvmerge v8.3.0 ('Over the Horizon') 64bit
Библиотека кодирования : libebml v1.3.1 + libmatroska v1.4.2
Attachments : poster.jpg

Видео
Идентификатор : 1
Формат : AVC
Формат/Информация : Advanced Video Codec
Профиль формата : High@L4.1
Параметр CABAC формата : Да
Параметр ReFrames формата : 10 кадров
Идентификатор кодека : V_MPEG4/ISO/AVC
Продолжительность : 1 ч. 59 м.
Битрейт : 2698 Кбит/сек
Ширина : 1024 пикселя
Высота : 428 пикселей
Соотношение сторон : 2,40:1
Режим частоты кадров : Постоянный
Частота кадров : 24,000 кадра/сек
Цветовое пространство : YUV
Субдискретизация насыщенности : 4:2:0
Битовая глубина : 8 бит
Тип развёртки : Прогрессивная
Бит/(Пиксели*Кадры) : 0.256
Размер потока : 2,25 Гбайт (87%)
Библиотека кодирования : x264 core 146 r2538 121396c
Настройки программы : cabac=1 / ref=10 / deblock=1:-3:-3 / analyse=0x3:0x133 / me=umh / subme=11 / psy=1 / psy_rd=1.00:0.05 / mixed_ref=1 / me_range=48 / chroma_me=1 / trellis=2 / 8x8dct=1 / cqm=0 / deadzone=21,11 / fast_pskip=1 / chroma_qp_offset=-3 / threads=6 / lookahead_threads=1 / sliced_threads=0 / nr=0 / decimate=1 / interlaced=0 / bluray_compat=0 / constrained_intra=0 / bframes=10 / b_pyramid=2 / b_adapt=2 / b_bias=0 / direct=3 / weightb=1 / open_gop=0 / weightp=2 / keyint=240 / keyint_min=23 / scenecut=40 / intra_refresh=0 / rc_lookahead=40 / rc=2pass / mbtree=0 / bitrate=2698 / ratetol=1.0 / qcomp=0.60 / qpmin=0 / qpmax=69 / qpstep=4 / cplxblur=20.0 / qblur=0.5 / vbv_maxrate=50000 / vbv_bufsize=62500 / nal_hrd=none / filler=0 / ip_ratio=1.40 / pb_ratio=1.30 / aq=1:1.00
Язык : English
Default : Да
Forced : Нет

Аудио
Идентификатор : 2
Формат : AC-3
Формат/Информация : Audio Coding 3
Расширение режима : CM (complete main)
Параметр Endianness формата : Big
Идентификатор кодека : A_AC3
Продолжительность : 1 ч. 59 м.
Вид битрейта : Постоянный
Битрейт : 384 Кбит/сек
Каналы : 6 каналов
Расположение каналов : Front: L C R, Side: L R, LFE
Частота : 48,0 КГц
Частота кадров : 31,250 кадров/сек (1536 spf)
Битовая глубина : 16 бит
Метод сжатия : С потерями
Размер потока : 328 Мбайт (12%)
Заголовок : iTunes
Язык : Russian
Default : Да
Forced : Нет

Текст #1
Идентификатор : 3
Формат : UTF-8
Идентификатор кодека : S_TEXT/UTF8
Идентификатор кодека/Информация : UTF-8 Plain Text
Продолжительность : 1 ч. 58 м.
Битрейт : 67 бит/сек
Count of elements : 1615
Размер потока : 58,6 Кбайт (0%)
Заголовок : Full
Язык : English
Default : Нет
Forced : Нет

Текст #2
Идентификатор : 4
Формат : UTF-8
Идентификатор кодека : S_TEXT/UTF8
Идентификатор кодека/Информация : UTF-8 Plain Text
Продолжительность : 1 ч. 58 м.
Битрейт : 54 бит/сек
Count of elements : 1302
Размер потока : 47,7 Кбайт (0%)
Default : Нет
Forced : Нет

Меню
00:00:00.000 : :00:00:00.000
00:06:36.708 : :00:06:36.708
00:13:36.208 : :00:13:36.208
00:20:23.500 : :00:20:23.500
00:26:20.625 : :00:26:20.625
00:34:28.083 : :00:34:28.083
00:41:55.042 : :00:41:55.042
00:48:43.333 : :00:48:43.333
00:53:18.625 : :00:53:18.625
00:56:49.083 : :00:56:49.083
01:03:32.417 : :01:03:32.417
01:06:54.417 : :01:06:54.417
01:15:22.208 : :01:15:22.208
01:22:21.042 : :01:22:21.042
01:28:53.750 : :01:28:53.750
01:35:47.458 : :01:35:47.458
01:41:42.292 : :01:41:42.292
01:49:58.750 : :01:49:58.750

Скриншоты


ЗалилПроизводство: Constantin Film
Зачётный препод 3 / Fack ju Göhte 3



Страна: Германия
Аудио #1: 48 kHz, AC3 Dolby Digital, 3/2 (L,C,R,l,r) + LFE ch, ~384.00 kbps avg | RUS (iTunes)

Режиссёр: Бора Дагтекин
Видео: 1024x428 (2.40:1), 24,000 fps, x264 ~2 698 kbps avg, 0.256 bit/pixel
Аудио кодек: AC3
Видео кодек: MPEG-4 AVC
Релиз от: Формат: MKV
В ролях: Элиас ЭмБарек, Катя Риман, Йелла Хаазе, Сандра Хюллер, Макс фон Гробен, Уши Глас, Гизем Эмре, Арам Арами, Лукас Райбер, Руна Грайнер

Дата премьеры (РФ): 12 апреля 2018, «Ракета Релизинг»


Дата премьеры (мир): 26 октября 2017

Если у вас возникли проблемы с закачкой Зачётный препод 3 / Fack ju Göhte 3 (2017) BDRip-AVC от OlLanDGroup | iTunes, перейдите по ссылке - там вы найдете решение своей проблемы.

Категория: Зарубежные фильмы

 

Скачать Зачётный препод 3 / Fack ju Göhte 3 (2017) BDRip-AVC от OlLanDGroup | iTunes бесплатно без регистрации

 

Информация
Посетители, находящиеся в группе Гости, не могут оставлять комментарии к данной публикации.
 
 
Скачать Зачётный препод 3 / Fack ju Göhte 3 (2017) BDRip-AVC от OlLanDGroup | iTunes бесплатно без регистрацииCopyright © 2019 .