Скачать Одержимость / Whiplash (2014) BDRemux 1080p от KORSAR | P, A | US Transfer бесплатно без регистрации





Золотой глобус, 2015 год
Победитель (1):
Лучшая мужская роль второго плана (Дж.К. Симмонс)

Сандэнс, 2014 год
Победитель (2):
Гран-при - драма
Приз зрительских симпатий - драмаСкриншоты
MediaInfoОбщее
Уникальный идентификатор : 243941023500203323524033892152402947728 (0xB7855509E70EB44D9A20987FB836AE90)
Полное имя : Whiplash.2014.BDRemux.1080p.KORSAR.mkv
Формат : Matroska
Версия формата : Version 4 / Version 2
Размер файла : 27,0 Гбайт
Продолжительность : 1 ч. 46 м.
Режим общего битрейта : Переменный
Общий поток : 36,3 Мбит/сек
Название фильма : Whiplash.2014.BDRemux.1080p.KORSAR
Дата кодирования : UTC 2019-01-06 12:05:41
Программа кодирования : mkvmerge v7.8.0 ('River Man') 32bit built on Apr 3 2015 12:11:22
Библиотека кодирования : libebml v1.3.1 + libmatroska v1.4.2

Видео
Идентификатор : 1
Формат : AVC
Формат/Информация : Advanced Video Codec
Профиль формата : High@L4.1
Параметр CABAC формата : Да
Параметр RefFrames формата : 2 кадра
Идентификатор кодека : V_MPEG4/ISO/AVC
Продолжительность : 1 ч. 46 м.
Вид битрейта : Переменный
Битрейт : 24,9 Мбит/сек
Ширина : 1920 пикселей
Высота : 1080 пикселей
Соотношение сторон : 16:9
Режим частоты кадров : Постоянный
Частота кадров : 23,976 (24000/1001) кадра/сек
Цветовое пространство : YUV
Субдискретизация насыщенности : 4:2:0
Битовая глубина : 8 бит
Тип развёртки : Прогрессивная
Бит/(Пиксели*Кадры) : 0.501
Размер потока : 18,6 Гбайт (69%)
Заголовок : Whiplash.2014.BDRemux.1080p.KORSAR
Язык : English
Default : Да
Forced : Нет

Аудио #1
Идентификатор : 2
Формат : DTS
Формат/Информация : Digital Theater Systems
Профиль формата : MA / Core
Режим : 16
Параметр Endianness формата : Big
Идентификатор кодека : A_DTS
Продолжительность : 1 ч. 46 м.
Вид битрейта : Переменный / Постоянный
Битрейт : 3274 Кбит/сек / 1509 Кбит/сек
Каналы : 6 каналов
Расположение каналов : Front: L C R, Side: L R, LFE
Частота : 48,0 КГц
Частота кадров : 93,750 кадра/сек (512 SPF)
Битовая глубина : 24 бит
Метод сжатия : Без потерь / Lossy
Размер потока : 2,44 Гбайт (9%)
Заголовок : MVO, BD RUS
Язык : Russian
Default : Да
Forced : Нет

Аудио #2
Идентификатор : 3
Формат : DTS
Формат/Информация : Digital Theater Systems
Профиль формата : MA / Core
Режим : 16
Параметр Endianness формата : Big
Идентификатор кодека : A_DTS
Продолжительность : 1 ч. 46 м.
Вид битрейта : Переменный / Постоянный
Битрейт : 2191 Кбит/сек / 1509 Кбит/сек
Каналы : 6 каналов
Расположение каналов : Front: L C R, Side: L R, LFE
Частота : 48,0 КГц
Частота кадров : 93,750 кадра/сек (512 SPF)
Битовая глубина : 16 бит
Метод сжатия : Без потерь / Lossy
Размер потока : 1,63 Гбайт (6%)
Заголовок : AVO, Ю. Немахов
Язык : Russian
Default : Нет
Forced : Нет

Аудио #3
Идентификатор : 4
Формат : DTS
Формат/Информация : Digital Theater Systems
Профиль формата : MA / Core
Режим : 16
Параметр Endianness формата : Big
Идентификатор кодека : A_DTS
Продолжительность : 1 ч. 46 м.
Вид битрейта : Переменный / Постоянный
Битрейт : 2191 Кбит/сек / 1509 Кбит/сек
Каналы : 6 каналов
Расположение каналов : Front: L C R, Side: L R, LFE
Частота : 48,0 КГц
Частота кадров : 93,750 кадра/сек (512 SPF)
Битовая глубина : 16 бит
Метод сжатия : Без потерь / Lossy
Размер потока : 1,63 Гбайт (6%)
Заголовок : AVO, А. Дасевич
Язык : Russian
Default : Нет
Forced : Нет

Аудио #4
Идентификатор : 5
Формат : DTS
Формат/Информация : Digital Theater Systems
Режим : 16
Параметр Endianness формата : Big
Идентификатор кодека : A_DTS
Продолжительность : 1 ч. 46 м.
Вид битрейта : Постоянный
Битрейт : 1509 Кбит/сек
Каналы : 6 каналов
Расположение каналов : Front: L C R, Side: L R, LFE
Частота : 48,0 КГц
Частота кадров : 93,750 кадра/сек (512 SPF)
Битовая глубина : 16 бит
Метод сжатия : С потерями
Размер потока : 1,13 Гбайт (4%)
Заголовок : AVO, А. Матвеев
Язык : Russian
Default : Нет
Forced : Нет

Аудио #5
Идентификатор : 6
Формат : DTS
Формат/Информация : Digital Theater Systems
Профиль формата : MA / Core
Режим : 16
Параметр Endianness формата : Big
Идентификатор кодека : A_DTS
Продолжительность : 1 ч. 46 м.
Вид битрейта : Переменный / Постоянный
Битрейт : 2187 Кбит/сек / 1509 Кбит/сек
Каналы : 6 каналов
Расположение каналов : Front: L C R, Side: L R, LFE
Частота : 48,0 КГц
Частота кадров : 93,750 кадра/сек (512 SPF)
Битовая глубина : 16 бит
Метод сжатия : Без потерь / Lossy
Размер потока : 1,63 Гбайт (6%)
Заголовок : Оригинал
Язык : English
Default : Нет
Forced : Нет

Текст #1
Идентификатор : 7
Формат : UTF-8
Идентификатор кодека : S_TEXT/UTF8
Идентификатор кодека/Информация : UTF-8 Plain Text
Продолжительность : 1 ч. 36 м.
Битрейт : 69 бит/сек
ElementCount : 983
Размер потока : 48,9 Кбайт (0%)
Заголовок : Full
Язык : Russian
Default : Нет
Forced : Нет

Текст #2
Идентификатор : 8
Формат : UTF-8
Идентификатор кодека : S_TEXT/UTF8
Идентификатор кодека/Информация : UTF-8 Plain Text
Продолжительность : 1 ч. 39 м.
Битрейт : 66 бит/сек
ElementCount : 933
Размер потока : 48,6 Кбайт (0%)
Заголовок : Full, MartinaG
Язык : Russian
Default : Нет
Forced : Нет

Текст #3
Идентификатор : 9
Формат : UTF-8
Идентификатор кодека : S_TEXT/UTF8
Идентификатор кодека/Информация : UTF-8 Plain Text
Продолжительность : 1 ч. 35 м.
Битрейт : 45 бит/сек
ElementCount : 894
Размер потока : 31,8 Кбайт (0%)
Заголовок : Full
Язык : English
Default : Нет
Forced : Нет

Текст #4
Идентификатор : 10
Формат : UTF-8
Идентификатор кодека : S_TEXT/UTF8
Идентификатор кодека/Информация : UTF-8 Plain Text
Продолжительность : 1 ч. 44 м.
Битрейт : 44 бит/сек
ElementCount : 1023
Размер потока : 34,3 Кбайт (0%)
Заголовок : SDH
Язык : English
Default : Нет
Forced : Нет

Текст #5
Идентификатор : 11
Формат : UTF-8
Идентификатор кодека : S_TEXT/UTF8
Идентификатор кодека/Информация : UTF-8 Plain Text
Продолжительность : 1 ч. 44 м.
Битрейт : 52 бит/сек
ElementCount : 1023
Размер потока : 40,0 Кбайт (0%)
Заголовок : SDH, Colored
Язык : English
Default : Нет
Forced : Нет

Меню
00:00:00.000 : en:Chapter 1
00:06:51.826 : en:Chapter 2
00:14:34.456 : en:Chapter 3
00:24:26.381 : en:Chapter 4
00:30:06.095 : en:Chapter 5
00:35:43.974 : en:Chapter 6
00:43:31.358 : en:Chapter 7
00:46:55.311 : en:Chapter 8
00:53:12.480 : en:Chapter 9
01:02:37.503 : en:Chapter 10
01:10:30.559 : en:Chapter 11
01:14:03.604 : en:Chapter 12
01:17:48.787 : en:Chapter 13
01:23:06.104 : en:Chapter 14
01:25:28.287 : en:Chapter 15
01:31:56.219 : en:Chapter 16 ЗалилАудио 2: Russian: 48 kHz, DTS-HD Ma Audio, 5.1 ch, 2191 kbps - AVO, Ю. Немахов
Оскар, 2015 год
Победитель (3):
Лучшая мужская роль второго плана (Дж.К. Симмонс)
Лучший звук
Лучший монтаж
Номинации (2):
Лучший фильм
Лучший адаптированный сценарий

Видео: MPEG-4 AVC, 1920x1080, 24897 kbps, 23.976 fps
Аудио 5: English: 48 kHz, DTS-HD Ma Audio, 5.1 ch, 2187 kbps - Оригинал
Файл
Режиссёр: Дэмьен Шазелл / Damien Chazelle
Аудио 3: Russian: 48 kHz, DTS-HD Ma Audio, 5.1 ch, 2191 kbps - AVO, А. Дасевич
Год выхода: 2014
Информация о фильме
Название: Одержимость
ptizelow Оценка10 из 10 (3 голосов, самая низкая оценка - 10, самая высокая - 10) КатегорияЗарубежные фильмы Раздают6 Качают0 Сидер замечен28-05-2019 8:19:11 (11 минуту назад) Добавлен06-01-2019 18:39:54 (5 месяцев назад) Размер27.04 GB (29031215859 Bytes)Контейнер: MKV
О фильме
Эндрю мечтает стать великим. Казалось бы, вот-вот его мечта осуществится. Юношу замечает настоящий гений, дирижер лучшего в стране оркестра. Желание Эндрю добиться успеха быстро становится одержимостью, а безжалостный наставник продолжает подталкивать его все дальше и дальше — за пределы человеческих возможностей. Кто выйдет победителем из этой схватки?



Оригинальное название: Whiplash
Субтитры: Русские, английские
Релиз от:

НаградыПродолжительность: 01:46:45
В ролях: Майлз Теллер, Дж.К. Симмонс, Пол Райзер, Мелисса Беноист, Остин Стоуэлл, Нат Лэнг, Крис Малки, Дэймон Гаптон, Макс Кэш, Сюанн Споук

Перевод: Профессиональный многоголосый, авторский одноголосый
Аудио 1: Russian: 48 kHz, DTS-HD Ma Audio, 5.1 ch, 3274 kbps - MVO, BD RUS
Сатурн, 2015 год
Победитель (1):
Лучший независимый фильм
Номинации (2):
Лучший актер второго плана (Дж.К. Симмонс)
Лучший сценарий

Британская академия, 2015 год
Победитель (3):
Лучшая мужская роль второго плана (Дж.К. Симмонс)
Лучший звук
Лучший монтаж
Номинации (2):
Лучший оригинальный сценарий
Премия имени Дэвида Лина за достижения в режиссуре (Дэмьен Шазелл)

Премия канала «MTV», 2015 год
Номинации (5):
Лучший фильм
Лучшая мужская роль (Майлз Теллер)
Лучший злодей (Дж.К. Симмонс)
Самый безумный эпизод
Лучший музыкальный момент

Аудио 4: Russian: 48 kHz, DTS Audio, 5.1 ch, 1509 kbps - AVO, А. Матвеев
Премия Гильдии актеров, 2015 год
Победитель (1):
Лучшая мужская роль второго плана (Дж.К. Симмонс)

Выпущено: США, Bold Films, Blumhouse Productions, Right of Way Films
Каннский кинофестиваль, 2014 год
Номинации (1):
Квир-Пальмовая ветвь за освещение ЛГБТ-темы в кино (Дэмьен Шазелл)

Жанр: Драма, музыка
Навигация по главам: Есть

Качество: BDRemux 1080p

Если у вас возникли проблемы с закачкой Одержимость / Whiplash (2014) BDRemux 1080p от KORSAR | P, A | US Transfer, перейдите по ссылке - там вы найдете решение своей проблемы.

Категория: Зарубежные фильмы

 

Скачать Одержимость / Whiplash (2014) BDRemux 1080p от KORSAR | P, A | US Transfer бесплатно без регистрации

 

Информация
Посетители, находящиеся в группе Гости, не могут оставлять комментарии к данной публикации.
 
 
Скачать Одержимость / Whiplash (2014) BDRemux 1080p от KORSAR | P, A | US Transfer бесплатно без регистрацииCopyright © 2019 .