Скачать Белые росы (1983) HDTVRip 720p от KORSAR бесплатно без регистрации






Информация о фильме
Страна: СССР, Беларусьфильм
Режиссёр: Игорь Добролюбов
Жанр: Комедия
Качество: HDTVRip 720p
Навигация по главам: Есть

Название: Белые росы
Видео: MPEG-4 AVC, 1280x720, 8788 Кбит/с, 25.000 Кадр/с
Описание: Ветеран труда и трех войн, уважаемый человек в деревне Белые росы — Федор Ходас уже давно овдовел и имеет трех взрослых сыновей. Старший чрезмерно расчетлив, младший чересчур весел. Средний уехал на Курилы и каков он теперь отцу неведомо. Но за всех у старика душа болит, особенно за младшего балагура.



Аудио: AC3, 2 ch, 192 Кбит/с
Релиз от:

Скриншоты


MediaInfox264 [info]: frame I:621 Avg QP:18.95 size: 185847
x264 [info]: frame P:25482 Avg QP:20.43 size: 100986
x264 [info]: frame B:99307 Avg QP:22.39 size: 29553
x264 [info]: consecutive B-frames: 0.9% 1.2% 4.3% 19.5% 24.0% 44.0% 5.0% 0.8% 0.2% 0.0%

================================================================

Общее
Уникальный идентификатор : 202559611899657029965914532406259229411 (0x98638FECDEBDDB179C7DDC4AA7BE22E3)
Полное имя : Белые.росы.1983.HDTVRip.720p.KORSAR.mkv
Формат : Matroska
Версия формата : Version 2
Размер файла : 5,35 Гбайт
Продолжительность : 1 ч. 23 м.
Общий поток : 9162 Кбит/сек
Название фильма : Белые.росы.1983.HDTVRip.720p.KORSAR
Дата кодирования : UTC 2018-07-31 08:54:52
Программа кодирования : mkvmerge v5.8.0 ('No Sleep / Pillow') built on Sep 2 2012 15:37:04
Библиотека кодирования : libebml v1.2.3 + libmatroska v1.3.0

Видео
Идентификатор : 1
Формат : AVC
Формат/Информация : Advanced Video Codec
Профиль формата : High@L4.1
Параметр CABAC формата : Да
Параметр RefFrames формата : 9 кадров
Идентификатор кодека : V_MPEG4/ISO/AVC
Продолжительность : 1 ч. 23 м.
Битрейт : 8788 Кбит/сек
Ширина : 1280 пикселей
Высота : 720 пикселей
Соотношение сторон : 16:9
Режим частоты кадров : Постоянный
Частота кадров : 25,000 кадров/сек
Цветовое пространство : YUV
Субдискретизация насыщенности : 4:2:0
Битовая глубина : 8 бит
Тип развёртки : Прогрессивная
Бит/(Пиксели*Кадры) : 0.381
Размер потока : 5,13 Гбайт (96%)
Библиотека кодирования : x264 core 152 r2851kMod ba24899
Настройки программы : cabac=1 / ref=9 / deblock=1:-2:-2 / analyse=0x3:0x113 / me=umh / subme=10 / psy=1 / fade_compensate=0.00 / psy_rd=1.05:0.10 / mixed_ref=1 / me_range=40 / chroma_me=1 / trellis=2 / 8x8dct=1 / cqm=0 / deadzone=21,11 / fast_pskip=1 / chroma_qp_offset=-3 / threads=12 / lookahead_threads=2 / sliced_threads=0 / nr=0 / decimate=1 / interlaced=0 / bluray_compat=0 / constrained_intra=0 / bframes=9 / b_pyramid=2 / b_adapt=2 / b_bias=0 / direct=1 / weightb=1 / open_gop=0 / weightp=2 / keyint=250 / keyint_min=25 / scenecut=40 / intra_refresh=0 / rc=crf / mbtree=0 / crf=17.7000 / qcomp=0.63 / qpmin=0 / qpmax=39 / qpstep=4 / ip_ratio=1.40 / pb_ratio=1.30 / aq=1:0.90
Язык : English
Default : Да
Forced : Нет
Цветовой диапазон : Limited
Основные цвета : BT.709
Характеристики трансфера : BT.709
Коэффициенты матрицы : BT.709

Аудио
Идентификатор : 2
Формат : AC-3
Формат/Информация : Audio Coding 3
Параметр Endianness формата : Big
Идентификатор кодека : A_AC3
Продолжительность : 1 ч. 23 м.
Вид битрейта : Постоянный
Битрейт : 192 Кбит/сек
Каналы : 2 канала
Расположение каналов : Front: L R
Частота : 48,0 КГц
Частота кадров : 31,250 кадров/сек (1536 SPF)
Битовая глубина : 16 бит
Метод сжатия : С потерями
Размер потока : 115 Мбайт (2%)
Язык : Russian
Default : Да
Forced : Нет

Текст
Идентификатор : 3
Формат : UTF-8
Идентификатор кодека : S_TEXT/UTF8
Идентификатор кодека/Информация : UTF-8 Plain Text
Язык : Russian
Default : Нет
Forced : Нет

Меню
00:00:00.000 : ru:Вступление
00:05:38.680 : ru:Средний сын
00:09:55.280 : ru:Младший сын
00:14:45.200 : ru:Кисель вернулся
00:22:15.120 : ru:Семейные проблемы
00:27:17.440 : ru:Наследство
00:32:37.640 : ru:Народная медицина
00:35:12.240 : ru:Чья дочь?
00:42:36.360 : ru:Пойдём разводиться
00:46:20.120 : ru:15 суток
00:50:30.720 : ru:Ордер
00:54:55.600 : ru:Отметим!
01:04:32.320 : ru:Подмена
01:09:11.680 : ru:Смотрины
01:14:54.880 : ru:Свадьба
01:19:21.720 : ru:Спасибо за всё! ЗалилВ ролях: Всеволод Санаев, Николай Караченцов, Михаил Кокшенов, Геннадий Гарбук, Борис Новиков, Галина Польских, Наталья Харахорина, Станислав Садальский, Стефания Станюта

Год выпуска: 1983
ptizelow Оценка10 из 10 (3 голосов, самая низкая оценка - 10, самая высокая - 10) КатегорияНаши фильмы Раздают10 Качают3 Сидер замечен23-06-2019 15:19:12 (4 минуты назад) Добавлен01-08-2018 16:30:15 (11 месяц назад) Размер5.35 GB (5745221674 Bytes)Перевод: Не требуется

Продолжительность: 01:23:36
Субтитры: Русские

Если у вас возникли проблемы с закачкой Белые росы (1983) HDTVRip 720p от KORSAR, перейдите по ссылке - там вы найдете решение своей проблемы.

Категория: Наши фильмы

 

Скачать Белые росы (1983) HDTVRip 720p от KORSAR бесплатно без регистрации

 

Информация
Посетители, находящиеся в группе Гости, не могут оставлять комментарии к данной публикации.
 
 
Скачать Белые росы (1983) HDTVRip 720p от KORSAR бесплатно без регистрацииCopyright © 2019 .