Скачать Роковое искушение / The Beguiled (2017) BDRip 720p от k.e.n & MegaPeer | Лицензия бесплатно без регистрации





Информация о фильме
Видео: AVC, 1200x720, 23.976 fps, 4 442 Kbps (0.214 bit/pixel)
Аудио #1: AC-3, 48.0 KHz, 6 ch, 448 Kbps, CBR (Russian)
Релиз от: Режиссер: София Коппола
Аудио #2: AC-3, 48.0 KHz, 6 ch, 448 Kbps, CBR (English)

МедиаИнфоComplete name : D:ФИЛЬМЫРоковое искушение.2017 (К.Фаррелл, Н.Кидман).k.e.n & MegaPeer.mkv
Format : Matroska
Format version : Version 2
File size : 3.48 GiB
Duration : 1 h 33 min
Overall bit rate : 5 341 kb/s
Encoded date : UTC 2017-11-23 04:38:55
Writing application : mkvmerge v5.3.0 ('I could have danced') built on Feb 9 2012 10:38:07
Writing library : libebml v1.2.3 + libmatroska v1.3.0
Attachments : poster (7).jpg

Video
ID : 1
Format : AVC
Format/Info : Advanced Video Codec
Format profile : High@L4.1
Format settings, CABAC : Yes
Format settings, RefFrames : 9 frames
Codec ID : V_MPEG4/ISO/AVC
Duration : 1 h 33 min
Bit rate : 4 442 kb/s
Width : 1 200 pixels
Height : 720 pixels
Display aspect ratio : 5:3
Frame rate mode : Constant
Frame rate : 23.976 (24000/1001) FPS
Color space : YUV
Chroma subsampling : 4:2:0
Bit depth : 8 bits
Scan type : Progressive
Bits/(Pixel*Frame) : 0.214
Stream size : 2.82 GiB (81%)
Writing library : x264 core 146 r2538 121396c
Encoding settings : cabac=1 / ref=9 / deblock=1:-3:-3 / analyse=0x3:0x133 / me=umh / subme=11 / psy=1 / psy_rd=1.00:0.00 / mixed_ref=1 / me_range=32 / chroma_me=1 / trellis=2 / 8x8dct=1 / cqm=0 / deadzone=21,11 / fast_pskip=0 / chroma_qp_offset=-2 / threads=12 / lookahead_threads=3 / sliced_threads=0 / nr=0 / decimate=0 / interlaced=0 / bluray_compat=0 / constrained_intra=0 / bframes=9 / b_pyramid=2 / b_adapt=2 / b_bias=0 / direct=3 / weightb=1 / open_gop=0 / weightp=2 / keyint=240 / keyint_min=23 / scenecut=40 / intra_refresh=0 / rc=2pass / mbtree=0 / bitrate=4442 / ratetol=1.0 / qcomp=0.60 / qpmin=0 / qpmax=69 / qpstep=4 / cplxblur=20.0 / qblur=0.5 / ip_ratio=1.40 / pb_ratio=1.30 / aq=1:0.90
Language : English
Default : Yes
Forced : No

Audio #1
ID : 2
Format : AC-3
Format/Info : Audio Coding 3
Format settings, Endianness : Big
Codec ID : A_AC3
Duration : 1 h 33 min
Bit rate mode : Constant
Bit rate : 448 kb/s
Channel(s) : 6 channels
Channel positions : Front: L C R, Side: L R, LFE
Sampling rate : 48.0 kHz
Frame rate : 31.250 FPS (1536 SPF)
Bit depth : 16 bits
Compression mode : Lossy
Stream size : 298 MiB (8%)
Title : Дублированный
Language : Russian
Service kind : Complete Main
Default : Yes
Forced : No

Audio #2
ID : 3
Format : AC-3
Format/Info : Audio Coding 3
Format settings, Endianness : Big
Codec ID : A_AC3
Duration : 1 h 33 min
Bit rate mode : Constant
Bit rate : 448 kb/s
Channel(s) : 6 channels
Channel positions : Front: L C R, Side: L R, LFE
Sampling rate : 48.0 kHz
Frame rate : 31.250 FPS (1536 SPF)
Bit depth : 16 bits
Compression mode : Lossy
Stream size : 298 MiB (8%)
Language : English
Service kind : Complete Main
Default : No
Forced : No

Text #1
ID : 4
Format : UTF-8
Codec ID : S_TEXT/UTF8
Codec ID/Info : UTF-8 Plain Text
Title : forced
Language : Russian
Default : Yes
Forced : No

Text #2
ID : 5
Format : UTF-8
Codec ID : S_TEXT/UTF8
Codec ID/Info : UTF-8 Plain Text
Language : Russian
Default : No
Forced : No

Text #3
ID : 6
Format : UTF-8
Codec ID : S_TEXT/UTF8
Codec ID/Info : UTF-8 Plain Text
Title : full
Language : English
Default : No
Forced : No

Text #4
ID : 7
Format : UTF-8
Codec ID : S_TEXT/UTF8
Codec ID/Info : UTF-8 Plain Text
Title : SDH
Language : English
Default : No
Forced : No

Menu
00:00:00.000 : en:Chapter 1
00:05:49.641 : en:Chapter 2
00:09:24.439 : en:Chapter 3
00:13:35.982 : en:Chapter 4
00:18:02.248 : en:Chapter 5
00:24:52.199 : en:Chapter 6
00:31:00.650 : en:Chapter 7
00:34:20.725 : en:Chapter 8
00:41:45.461 : en:Chapter 9
00:44:20.950 : en:Chapter 10
00:48:38.165 : en:Chapter 11
00:54:47.367 : en:Chapter 12
01:00:50.772 : en:Chapter 13
01:04:36.956 : en:Chapter 14
01:11:04.844 : en:Chapter 15
01:13:30.489 : en:Chapter 16
01:16:26.665 : en:Chapter 17
01:21:33.472 : en:Chapter 18
01:26:06.286 : en:Chapter 19
01:29:22.732 : en:Chapter 20
О фильме: Раненый янки Джон МакБарней (Колин Фаррелл), капрал армии северян, был спасен от смерти юной конфедераткой из южной школы-интерната. Женский коллектив ухаживает за ним и делает все для его лечения. Вскоре Джон начинает поправляться и понимает, в какое благодатное место его привела судьба. Одна за другой девушки оказываются очарованы обаятельным выздоравливающим. Постепенно атмосфера в школе накаляется — каждая мечтает завоевать расположение красавца-мужчины. Вскоре ревность, обман и обиды приходят на смену душевной близости и сердечности.



Субтитры: Русские, английские


Выпущено: США, American Zoetrope, FR Productions
Год выпуска: 2017
Продолжительность: 01:33:08
Перевод: Дублированный
Качество: BDRip 720p
Жанр: Драма
Скриншоты:


Группа в ВК & ОценкаНикто ещё не поставил оценку КатегорияЗарубежные фильмы Раздают4 Качают0 Сидер замечен23-06-2019 8:19:12 (4 минуты назад) Добавлен23-11-2017 7:43:52 (19 месяцев назад) Размер3.48 GB (3731409259 Bytes)Название: Роковое искушение
Оригинальное название: The Beguiled
В ролях: Колин Фаррелл, Николь Кидман, Кирстен Данст, Элль Фэннинг, Уна Лоуренс, Энгаури Райс, Эддисон Рики, Эмма Ховард, Уэйн Пер, Мэтт Стори

Если у вас возникли проблемы с закачкой Роковое искушение / The Beguiled (2017) BDRip 720p от k.e.n & MegaPeer | Лицензия, перейдите по ссылке - там вы найдете решение своей проблемы.

Категория: Зарубежные фильмы

 

Скачать Роковое искушение / The Beguiled (2017) BDRip 720p от k.e.n & MegaPeer | Лицензия бесплатно без регистрации

 

Информация
Посетители, находящиеся в группе Гости, не могут оставлять комментарии к данной публикации.
 
 
Скачать Роковое искушение / The Beguiled (2017) BDRip 720p от k.e.n & MegaPeer | Лицензия бесплатно без регистрацииCopyright © 2019 .