Скачать Байкеры 3 / Dhoom: 3 (2013) BDRip-AVC от ExKinoRay | L бесплатно без регистрации






Информация о фильме
Субтитры: Русские (на тексты песен)
Продолжительность: 02:51:11
Авторы релиза: ЗалилЖанр: Боевик, триллер, криминал
Перевод: Любительский многоголосый (ICG)
В ролях: Аамир Кхан, Катрина Каиф, Табретт Бетелл, Абхишек Баччан, Джеки Шрофф, Удай Чопра, Ким ДеДжизес, Жаклин Скисловски, М’лаа Каур Сингх, Луис Шершель


Релиз от:

Страна: Индия, Yash Raj Films Pvt. Ltd.
Год выхода: 2013
Кодек: H.264
Качество: BDRip (AVC)
Vladislav71 ОценкаНикто ещё не поставил оценку КатегорияЗарубежные фильмы Раздают1 Качают1 Сидер замечен22-06-2019 2:19:12 (4 минуты назад) Добавлен17-05-2014 12:58:04 (62 месяца назад) Размер4.56 GB (4898490875 Bytes)Звук: Русский, хинди (AC3, 6 ch, 448 Кбит/с)

MediaInfoОбщее
Уникальный идентификатор : 189136467058374403590055132335434899519 (0x8E4A5BC9D2D5ADF38B5CBE82E994203F)
Полное имя : E:закачкиготоваDhoom 3.2013.BDRip.AVC.Rus.Original.ICG.ExKinoRay.mkv
Формат : Matroska
Размер файла : 4,56 Гбайт
Продолжительность : 2 ч. 51 м.
Общий поток : 3815 Кбит/сек
Название фильма : Dhoom 3 from ExKinoRay
Дата кодирования : UTC 2014-05-16 02:16:49
Программа кодирования : mkvmerge v4.9.1 ('Ich will') built on Jul 11 2011 23:53:15
Библиотека кодирования : libebml v1.2.1 + libmatroska v1.1.1

Видео
Идентификатор : 1
Формат : AVC
Формат/Информация : Advanced Video Codec
Профиль формата : High@L4.1
Параметр CABAC формата : Да
Параметр ReFrames формата : 8 кадров
Идентификатор кодека : V_MPEG4/ISO/AVC
Продолжительность : 2 ч. 51 м.
Битрейт : 2918 Кбит/сек
Ширина : 1024 пикс.
Высота : 434 пикс.
Соотношение сторон : 2,35:1
Частота кадров : 24,000 кадр/сек
Цветовое пространство : YUV
Подвыборка цветности : 4:2:0
Битовая глубина : 8 бит
Тип развёртки : Прогрессивная
Бит/(Пиксели*Кадры) : 0.274
Размер потока : 3,40 Гбайт (75%)
Заголовок : Enigma-Vladislav71
Библиотека кодирования : x264 core 116 r2044 392e762
Настройки программы : cabac=1 / ref=8 / deblock=1:-2:-1 / analyse=0x3:0x113 / me=umh / subme=9 / psy=1 / psy_rd=1.00:0.20 / mixed_ref=1 / me_range=32 / chroma_me=1 / trellis=2 / 8x8dct=1 / cqm=0 / deadzone=21,11 / fast_pskip=0 / chroma_qp_offset=-3 / threads=12 / sliced_threads=0 / nr=0 / decimate=0 / interlaced=0 / bluray_compat=0 / constrained_intra=0 / bframes=8 / b_pyramid=2 / b_adapt=2 / b_bias=0 / direct=3 / weightb=1 / open_gop=0 / weightp=2 / keyint=240 / keyint_min=24 / scenecut=40 / intra_refresh=0 / rc=2pass / mbtree=0 / bitrate=2918 / ratetol=1.0 / qcomp=0.60 / qpmin=0 / qpmax=69 / qpstep=4 / cplxblur=20.0 / qblur=0.5 / ip_ratio=1.40 / pb_ratio=1.30 / aq=1:1.00

Аудио #1
Идентификатор : 2
Формат : AC-3
Формат/Информация : Audio Coding 3
Расширение режима : CM (complete main)
Идентификатор кодека : A_AC3
Продолжительность : 2 ч. 51 м.
Вид битрейта : Постоянный
Битрейт : 448 Кбит/сек
Каналы : 6 каналов
Расположение каналов : Front: L C R, Side: L R, LFE
Частота : 48,0 КГц
Битовая глубина : 16 бит
Метод сжатия : С потерями
Размер потока : 549 Мбайт (12%)
Заголовок : ICG
Язык : Russian

Аудио #2
Идентификатор : 3
Формат : AC-3
Формат/Информация : Audio Coding 3
Расширение режима : CM (complete main)
Идентификатор кодека : A_AC3
Продолжительность : 2 ч. 51 м.
Вид битрейта : Постоянный
Битрейт : 448 Кбит/сек
Каналы : 6 каналов
Расположение каналов : Front: L C R, Side: L R, LFE
Частота : 48,0 КГц
Битовая глубина : 16 бит
Метод сжатия : С потерями
Размер потока : 549 Мбайт (12%)
Заголовок : Hindi
Язык : Hindi

Текст #1
Идентификатор : 4
Формат : UTF-8
Идентификатор кодека : S_TEXT/UTF8
Идентификатор кодека/Информация : UTF-8 Plain Text
Заголовок : На песни
Язык : Russian

Текст #2
Идентификатор : 5
Формат : UTF-8
Идентификатор кодека : S_TEXT/UTF8
Идентификатор кодека/Информация : UTF-8 Plain Text
Заголовок : Полные
Язык : Russian


Скриншоты


Оригинальное название: Dhoom: 3
Режиссер: Виджай Кришна Ачария
О фильме:
В юном возрасте у индийского мальчика Сахира и его отца, живших в Чикаго, банкиры забрали цирк за долги. Цирк был их домом, где они жили и выступали с труппой других циркачей. Оставшись без крова, Сахир пообещал, что наступит тот день, когда злобные банкиры поплатятся за совершённый поступок. И этот день действительно настал, но Сахир не учёл одного - двух хинди-полицейских Джая и Али, которые готовы поймать злоумышленника.



Видео: MPEG-4 AVC, 2918 Кбит/с, 1024x434
Название: Байкеры 3
Дата релиза: 16.05.2013

Если у вас возникли проблемы с закачкой Байкеры 3 / Dhoom: 3 (2013) BDRip-AVC от ExKinoRay | L, перейдите по ссылке - там вы найдете решение своей проблемы.

Категория: Зарубежные фильмы

 

Скачать Байкеры 3 / Dhoom: 3 (2013) BDRip-AVC от ExKinoRay | L бесплатно без регистрации

 

Информация
Посетители, находящиеся в группе Гости, не могут оставлять комментарии к данной публикации.
 
 
Скачать Байкеры 3 / Dhoom: 3 (2013) BDRip-AVC от ExKinoRay | L бесплатно без регистрацииCopyright © 2019 .