Скачать Прекрасные создания [01-02 из 02] (2018) HDTV 1080p от Generalfilm бесплатно без регистрации





Информация о фильме
заги бок 228 ОценкаНикто ещё не поставил оценку КатегорияНаши сериалы Раздают1 Качают0 Сидер замечен18-06-2019 13:19:12 (1 день назад) Добавлен19-08-2018 21:34:35 (10 месяцев назад) Размер9.01 GB (9674014989 Bytes)Формат: MKV
Качество: HDTV 1080pЗапись с
Релиз от:

ОтчетМедиаИнфо
General
Unique ID : 215329196048999154412240446944769307719 (0xA1FEE508406A1B6EA5EF4BC0027D7447)
Complete name : E:Запись с твPrekrasnye sozdaniya 2018.HDTV 1080p.R.G.GeneralfilmPrekrasnye sozdaniya.s01.e01.2018.HDTV 1080p.by.White Smoke.R.G.Generalfilm.mkv
Format : Matroska
Format version : Version 2
File size : 4.45 GiB
Duration : 1 h 28 min
Overall bit rate mode : Constant
Overall bit rate : 7 229 kb/s
Movie name : Prekrasnye sozdaniya.s01.e01.2018.HDTV 1080p.by.White Smoke.R.G.Generalfilm.mkv
Encoded date : UTC 2018-08-19 16:53:30
Writing application : mkvmerge v7.6.0 ('Garden of Dreams') 32bit built on Feb 11 2015 00:18:47
Writing library : libebml v1.3.1 + libmatroska v1.4.2
Cover : Yes
Attachments : cover.jpg

Video
ID : 1
Format : AVC
Format/Info : Advanced Video Codec
Format profile : High@L4.1
Format settings, CABAC : Yes
Format settings, ReFrames : 3 frames
Codec ID : V_MPEG4/ISO/AVC
Duration : 1 h 28 min
Bit rate mode : Constant
Bit rate : 7 051 kb/s
Width : 1 920 pixels
Height : 1 080 pixels
Display aspect ratio : 16:9
Frame rate mode : Constant
Frame rate : 25.000 FPS
Standard : PAL
Color space : YUV
Chroma subsampling : 4:2:0
Bit depth : 8 bits
Scan type : Progressive
Bits/(Pixel*Frame) : 0.136
Stream size : 4.25 GiB (95%)
Default : Yes
Forced : No
Color range : Limited
Color primaries : BT.709
Transfer characteristics : BT.709
Matrix coefficients : BT.709

Audio
ID : 2
Format : AC-3
Format/Info : Audio Coding 3
Mode extension : CM (complete main)
Format settings, Endianness : Big
Codec ID : A_AC3
Duration : 1 h 28 min
Bit rate mode : Constant
Bit rate : 192 kb/s
Channel(s) : 2 channels
Channel positions : Front: L R
Sampling rate : 48.0 kHz
Frame rate : 31.250 FPS (1536 spf)
Compression mode : Lossy
Stream size : 121 MiB (3%)
Default : Yes
Forced : No

Скриншоты


ЗалилПеревод: Не требуется [Русский]
Год выпуска: 2018
Название: Прекрасные создания
Режиссер: Максим Субботин
Видео: AVC, 1920x1080 (16:9), 7050 kbps, 25 fps, 0,136 bpp
В ролях: Юлия Подозерова (Анна), Владислав Шкляев (Виктор), Анастасия Акатова (Ксюша), Нил Кропалов (Слава), Дмитрий Муляр (Олег), Екатерина Малахит (одноклассница), Алёна Козырева (Алиса), Виктор Рябов (адвокат), Алексей Котовщиков (Андрей), Иван Латушко (Даня), Наталья Третьякова (сотрудница ЗАГСа), Владимир Верёвочкин (Владик)

Жанр: мелодрама
Описание:
Анна и Ксюша - жена и дочь нечистого на руку провинциального миллионера - узнают, что отец их семейства сбежал, скрываясь от полиции. Дом и машины конфискованы, счета заморожены, но женщины придумывают невероятный план: они продают оставшееся имущество и едут в Москву на поиски обеспеченных мужчин в надежде выгодно выйти замуж. Привыкшие к тепличным условиям Анна и Ксения сталкиваются с реальной жизнью, которая оказывается совсем не такой дружелюбной, как они себе представляли. Вчерашние светские львицы вынуждены жить в Подмосковье, устроиться на работу и учиться жить по средствам. Героини упорно ищут лёгкой жизни, а к своему счастью находят любовь.
Аудио: AC3 / 2.0 / 48 kHz / 192 kbps /

Рейтинг:

Страна: Россия
Продолжительность: 01:28:11 Серия

Если у вас возникли проблемы с закачкой Прекрасные создания [01-02 из 02] (2018) HDTV 1080p от Generalfilm, перейдите по ссылке - там вы найдете решение своей проблемы.

Категория: Наши сериалы

 

Скачать Прекрасные создания [01-02 из 02] (2018) HDTV 1080p от Generalfilm бесплатно без регистрации

 

Информация
Посетители, находящиеся в группе Гости, не могут оставлять комментарии к данной публикации.
 
 
Скачать Прекрасные создания [01-02 из 02] (2018) HDTV 1080p от Generalfilm бесплатно без регистрацииCopyright © 2019 .