Скачать NixBurg - Живые новости о Linux и Open Source [Выпуски 01-08] (2010) WEBRip 720p бесплатно без регистрации






Информация о фильме
Официальный сайт

Режиссер: Сластин Сергей
Название: NixBurg - живые новости о Linux и Open Source
Drool Оценка10 из 10 (1 голосов, самая низкая оценка - 10, самая высокая - 10) КатегорияТелевизор Раздают0 Качают1 Сидер замечен11-12-2017 3:19:06 (18 месяцев назад) Добавлен17-12-2010 22:49:42 (103 месяца назад) Размер1.20 GB (1291977122 Bytes)Качество: WEBRip 720p
В ролях: Ведущие

Релиз от: ЗалилКодек: MP4
Перевод: Русский (оригинал)

Продолжительность: 8 выпусков по ~10 минут
Студия: Кинокомпании “Рада-студия”
О фильме:
О проекте

Основу проекта составляет сама еженедельная программа “NixBurg” – новости об Open Source продуктах, и их прикладном использовании в мире. В данный момент используется подача новостей ведущими и репортажи с реальных мест, где внедряются решения на основе Open Source ПО. В дальнейшем есть планы включать в передачу обзоры программ, учебники по ним и т.д. Такие материалы ждем и от вас. Как это сделать?

Команда NixBurg считает, что передача об Open Source в видео формате может послужить своеобразным “мостом” между людьми использующими свободное ПО, людьми которые только хотят использовать его и теми, кто ищет общую информацию о свободном ПО.

Звук: AAC, 44100 Hz, 2 channels, s16MediaInfo всей раздачиGeneral
Complete name : /mnt/disk_d/Video/Nixburg/№8 - 06.12.2010.MP4
Format : MPEG-4
Format profile : Base Media / Version 2
Codec ID : mp42
File size : 104 MiB
Duration : 10mn 1s
Overall bit rate : 1 453 Kbps
Encoded date : UTC 2010-12-05 11:21:19
Tagged date : UTC 2010-12-05 11:21:19
gsst : 0
gstd : 601840
gssd : B4A7DD064MH1292607541425029
gshh : v4.cache4.c.youtube.com

Video
ID : 1
Format : AVC
Format/Info : Advanced Video Codec
Format profile : High@L3.1
Format settings, CABAC : Yes
Format settings, ReFrames : 1 frame
Format settings, GOP : M=1, N=60
Codec ID : avc1
Codec ID/Info : Advanced Video Coding
Duration : 10mn 1s
Bit rate mode : Variable
Bit rate : 1 320 Kbps
Maximum bit rate : 6 587 Kbps
Width : 1 280 pixels
Height : 720 pixels
Display aspect ratio : 16:9
Frame rate mode : Constant
Frame rate : 25.000 fps
Color space : YUV
Chroma subsampling : 4:2:0
Bit depth : 8 bits
Scan type : Progressive
Bits/(Pixel*Frame) : 0.057
Stream size : 94.7 MiB (91%)
Tagged date : UTC 2010-12-05 11:21:39

Audio
ID : 2
Format : AAC
Format/Info : Advanced Audio Codec
Format profile : LC
Codec ID : 40
Duration : 10mn 1s
Bit rate mode : Variable
Bit rate : 128 Kbps
Maximum bit rate : 191 Kbps
Channel(s) : 2 channels
Channel positions : Front: L R
Sampling rate : 44.1 KHz
Compression mode : Lossy
Stream size : 9.18 MiB (9%)
Title : (C) 2007 Google Inc. v08.13.2007.
Encoded date : UTC 2010-12-05 11:21:28
Tagged date : UTC 2010-12-05 11:21:39

General
Complete name : /mnt/disk_d/Video/Nixburg/№2 - 03.08.2010.MP4
Format : MPEG-4
Format profile : Base Media / Version 2
Codec ID : mp42
File size : 166 MiB
Duration : 10mn 58s
Overall bit rate : 2 117 Kbps
Encoded date : UTC 2010-08-02 17:35:08
Tagged date : UTC 2010-08-02 17:35:08
gsst : 0
gstd : 658120
gssd : B4A7D08C4HH1281035014175550
gshh : v12.lscache5.c.youtube.com

Video
ID : 1
Format : AVC
Format/Info : Advanced Video Codec
Format profile : High@L3.1
Format settings, CABAC : No
Format settings, ReFrames : 1 frame
Codec ID : avc1
Codec ID/Info : Advanced Video Coding
Duration : 10mn 58s
Bit rate mode : Variable
Bit rate : 1 984 Kbps
Maximum bit rate : 7 715 Kbps
Width : 1 280 pixels
Height : 720 pixels
Display aspect ratio : 16:9
Frame rate mode : Constant
Frame rate : 25.000 fps
Color space : YUV
Chroma subsampling : 4:2:0
Bit depth : 8 bits
Scan type : Progressive
Bits/(Pixel*Frame) : 0.086
Stream size : 156 MiB (94%)
Tagged date : UTC 2010-08-02 17:36:27

Audio
ID : 2
Format : AAC
Format/Info : Advanced Audio Codec
Format profile : LC
Codec ID : 40
Duration : 10mn 58s
Bit rate mode : Variable
Bit rate : 128 Kbps
Maximum bit rate : 169 Kbps
Channel(s) : 2 channels
Channel positions : Front: L R
Sampling rate : 44.1 KHz
Compression mode : Lossy
Stream size : 10.0 MiB (6%)
Title : (C) 2007 Google Inc. v08.13.2007.
Encoded date : UTC 2010-08-02 17:35:43
Tagged date : UTC 2010-08-02 17:36:27

General
Complete name : /mnt/disk_d/Video/Nixburg/№4 - 17.08.2010.MP4
Format : MPEG-4
Format profile : Base Media / Version 2
Codec ID : mp42
File size : 153 MiB
Duration : 10mn 10s
Overall bit rate : 2 097 Kbps
Encoded date : UTC 2010-08-17 14:59:55
Tagged date : UTC 2010-08-17 14:59:55
gsst : 0
gstd : 610320
gssd : B4A7D0A42HH1284815792483268
gshh : v10.lscache6.c.youtube.com

Video
ID : 1
Format : AVC
Format/Info : Advanced Video Codec
Format profile : High@L3.1
Format settings, CABAC : Yes
Format settings, ReFrames : 1 frame
Codec ID : avc1
Codec ID/Info : Advanced Video Coding
Duration : 10mn 10s
Bit rate mode : Variable
Bit rate : 1 964 Kbps
Maximum bit rate : 10.6 Mbps
Width : 960 pixels
Height : 720 pixels
Display aspect ratio : 4:3
Frame rate mode : Constant
Frame rate : 25.000 fps
Color space : YUV
Chroma subsampling : 4:2:0
Bit depth : 8 bits
Scan type : Progressive
Bits/(Pixel*Frame) : 0.114
Stream size : 143 MiB (94%)
Tagged date : UTC 2010-08-17 15:00:27

Audio
ID : 2
Format : AAC
Format/Info : Advanced Audio Codec
Format profile : LC
Codec ID : 40
Duration : 10mn 10s
Bit rate mode : Variable
Bit rate : 128 Kbps
Maximum bit rate : 173 Kbps
Channel(s) : 2 channels
Channel positions : Front: L R
Sampling rate : 44.1 KHz
Compression mode : Lossy
Stream size : 9.31 MiB (6%)
Title : (C) 2007 Google Inc. v08.13.2007.
Encoded date : UTC 2010-08-17 15:00:12
Tagged date : UTC 2010-08-17 15:00:27

General
Complete name : /mnt/disk_d/Video/Nixburg/№6 - 03.09.2010.MP4
Format : MPEG-4
Format profile : Base Media / Version 2
Codec ID : mp42
File size : 119 MiB
Duration : 11mn 42s
Overall bit rate : 1 421 Kbps
Encoded date : UTC 2010-09-01 20:45:56
Tagged date : UTC 2010-09-01 20:45:56
gsst : 0
gstd : 702840
gssd : B4A7D08C6MH1284833991725434
gshh : v14.lscache5.c.youtube.com

Video
ID : 1
Format : AVC
Format/Info : Advanced Video Codec
Format profile : High@L3.1
Format settings, CABAC : Yes
Format settings, ReFrames : 1 frame
Format settings, GOP : M=1, N=60
Codec ID : avc1
Codec ID/Info : Advanced Video Coding
Duration : 11mn 42s
Bit rate mode : Variable
Bit rate : 1 289 Kbps
Maximum bit rate : 6 482 Kbps
Width : 1 280 pixels
Height : 720 pixels
Display aspect ratio : 16:9
Frame rate mode : Constant
Frame rate : 25.000 fps
Color space : YUV
Chroma subsampling : 4:2:0
Bit depth : 8 bits
Scan type : Progressive
Bits/(Pixel*Frame) : 0.056
Stream size : 108 MiB (91%)
Tagged date : UTC 2010-09-01 20:46:25

Audio
ID : 2
Format : AAC
Format/Info : Advanced Audio Codec
Format profile : LC
Codec ID : 40
Duration : 11mn 42s
Bit rate mode : Variable
Bit rate : 128 Kbps
Maximum bit rate : 157 Kbps
Channel(s) : 2 channels
Channel positions : Front: L R
Sampling rate : 44.1 KHz
Compression mode : Lossy
Stream size : 10.7 MiB (9%)
Title : (C) 2007 Google Inc. v08.13.2007.
Encoded date : UTC 2010-09-01 20:46:11
Tagged date : UTC 2010-09-01 20:46:25

General
Complete name : /mnt/disk_d/Video/Nixburg/№3 - 10.08.2010.MP4
Format : MPEG-4
Format profile : Base Media / Version 2
Codec ID : mp42
File size : 188 MiB
Duration : 12mn 27s
Overall bit rate : 2 105 Kbps
Encoded date : UTC 2010-08-10 12:01:43
Tagged date : UTC 2010-08-10 12:01:43
gsst : 0
gstd : 747840
gssd : B4A7D0A83HH1284820149724961
gshh : v19.lscache3.c.youtube.com

Video
ID : 1
Format : AVC
Format/Info : Advanced Video Codec
Format profile : High@L3.1
Format settings, CABAC : Yes
Format settings, ReFrames : 1 frame
Codec ID : avc1
Codec ID/Info : Advanced Video Coding
Duration : 12mn 27s
Bit rate mode : Variable
Bit rate : 1 973 Kbps
Maximum bit rate : 8 534 Kbps
Width : 1 280 pixels
Height : 720 pixels
Display aspect ratio : 16:9
Frame rate mode : Constant
Frame rate : 25.000 fps
Color space : YUV
Chroma subsampling : 4:2:0
Bit depth : 8 bits
Scan type : Progressive
Bits/(Pixel*Frame) : 0.086
Stream size : 176 MiB (94%)
Tagged date : UTC 2010-08-10 12:02:11

Audio
ID : 2
Format : AAC
Format/Info : Advanced Audio Codec
Format profile : LC
Codec ID : 40
Duration : 12mn 27s
Bit rate mode : Variable
Bit rate : 128 Kbps
Maximum bit rate : 167 Kbps
Channel(s) : 2 channels
Channel positions : Front: L R
Sampling rate : 44.1 KHz
Compression mode : Lossy
Stream size : 11.4 MiB (6%)
Title : (C) 2007 Google Inc. v08.13.2007.
Encoded date : UTC 2010-08-10 12:01:58
Tagged date : UTC 2010-08-10 12:02:11

General
Complete name : /mnt/disk_d/Video/Nixburg/№7 - 16.09.2010.MP4
Format : MPEG-4
Format profile : Base Media / Version 2
Codec ID : mp42
File size : 117 MiB
Duration : 10mn 59s
Overall bit rate : 1 487 Kbps
Encoded date : UTC 2010-09-15 08:43:41
Tagged date : UTC 2010-09-15 08:43:41
gsst : 0
gstd : 659040
gssd : B4A7D6447HH1284836714284529
gshh : v23.lscache7.c.youtube.com

Video
ID : 1
Format : AVC
Format/Info : Advanced Video Codec
Format profile : High@L3.1
Format settings, CABAC : Yes
Format settings, ReFrames : 1 frame
Format settings, GOP : M=1, N=60
Codec ID : avc1
Codec ID/Info : Advanced Video Coding
Duration : 10mn 59s
Bit rate mode : Variable
Bit rate : 1 355 Kbps
Maximum bit rate : 6 483 Kbps
Width : 1 280 pixels
Height : 720 pixels
Display aspect ratio : 16:9
Frame rate mode : Constant
Frame rate : 25.000 fps
Color space : YUV
Chroma subsampling : 4:2:0
Bit depth : 8 bits
Scan type : Progressive
Bits/(Pixel*Frame) : 0.059
Stream size : 106 MiB (91%)
Tagged date : UTC 2010-09-15 08:44:28

Audio
ID : 2
Format : AAC
Format/Info : Advanced Audio Codec
Format profile : LC
Codec ID : 40
Duration : 10mn 58s
Bit rate mode : Variable
Bit rate : 128 Kbps
Maximum bit rate : 171 Kbps
Channel(s) : 2 channels
Channel positions : Front: L R
Sampling rate : 44.1 KHz
Compression mode : Lossy
Stream size : 10.1 MiB (9%)
Title : (C) 2007 Google Inc. v08.13.2007.
Encoded date : UTC 2010-09-15 08:44:08
Tagged date : UTC 2010-09-15 08:44:28

General
Complete name : /mnt/disk_d/Video/Nixburg/№5 - 26.08.2010.MP4
Format : MPEG-4
Format profile : Base Media / Version 2
Codec ID : mp42
File size : 173 MiB
Duration : 11mn 21s
Overall bit rate : 2 132 Kbps
Encoded date : UTC 2010-08-26 06:24:55
Tagged date : UTC 2010-08-26 06:24:55
gsst : 0
gstd : 681320
gssd : B4A7D0842MH1284829387893450
gshh : v18.lscache8.c.youtube.com

Video
ID : 1
Format : AVC
Format/Info : Advanced Video Codec
Format profile : High@L3.1
Format settings, CABAC : Yes
Format settings, ReFrames : 1 frame
Format settings, GOP : M=1, N=60
Codec ID : avc1
Codec ID/Info : Advanced Video Coding
Duration : 11mn 21s
Bit rate mode : Variable
Bit rate : 2 000 Kbps
Maximum bit rate : 9 488 Kbps
Width : 1 280 pixels
Height : 720 pixels
Display aspect ratio : 16:9
Frame rate mode : Constant
Frame rate : 25.000 fps
Color space : YUV
Chroma subsampling : 4:2:0
Bit depth : 8 bits
Scan type : Progressive
Bits/(Pixel*Frame) : 0.087
Stream size : 162 MiB (94%)
Tagged date : UTC 2010-08-26 06:25:30

Audio
ID : 2
Format : AAC
Format/Info : Advanced Audio Codec
Format profile : LC
Codec ID : 40
Duration : 11mn 21s
Bit rate mode : Variable
Bit rate : 128 Kbps
Maximum bit rate : 163 Kbps
Channel(s) : 2 channels
Channel positions : Front: L R
Sampling rate : 44.1 KHz
Compression mode : Lossy
Stream size : 10.4 MiB (6%)
Title : (C) 2007 Google Inc. v08.13.2007.
Encoded date : UTC 2010-08-26 06:25:03
Tagged date : UTC 2010-08-26 06:25:30

General
Complete name : /mnt/disk_d/Video/Nixburg/№1 - 29.07.2010.MP4
Format : MPEG-4
Format profile : Base Media / Version 2
Codec ID : mp42
File size : 212 MiB
Duration : 14mn 2s
Overall bit rate : 2 115 Kbps
Encoded date : UTC 2010-07-28 09:55:54
Tagged date : UTC 2010-07-28 09:55:54
gsst : 0
gstd : 842680
gssd : B4A7D08C8HH1282431569033716
gshh : v16.lscache5.c.youtube.com

Video
ID : 2
Format : AVC
Format/Info : Advanced Video Codec
Format profile : High@L3.1
Format settings, CABAC : Yes
Format settings, ReFrames : 1 frame
Format settings, GOP : M=1, N=44
Codec ID : avc1
Codec ID/Info : Advanced Video Coding
Duration : 14mn 2s
Bit rate mode : Variable
Bit rate : 1 987 Kbps
Maximum bit rate : 8 660 Kbps
Width : 1 280 pixels
Height : 720 pixels
Display aspect ratio : 16:9
Frame rate mode : Constant
Frame rate : 25.000 fps
Color space : YUV
Chroma subsampling : 4:2:0
Bit depth : 8 bits
Scan type : Progressive
Bits/(Pixel*Frame) : 0.086
Stream size : 200 MiB (94%)
Title : (C) 2007 Google Inc. v08.13.2007.
Encoded date : UTC 2010-07-28 09:55:55
Tagged date : UTC 2010-07-28 09:55:57

Audio
ID : 1
Format : AAC
Format/Info : Advanced Audio Codec
Format profile : LC
Codec ID : 40
Duration : 14mn 1s
Bit rate mode : Variable
Bit rate : 125 Kbps
Maximum bit rate : 152 Kbps
Channel(s) : 2 channels
Channel positions : Front: L R
Sampling rate : 44.1 KHz
Compression mode : Lossy
Stream size : 12.6 MiB (6%)
Title : (C) 2007 Google Inc. v08.13.2007.
Encoded date : UTC 2010-07-28 09:55:54
Tagged date : UTC 2010-07-28 09:55:57

Скриншоты
Год выхода: 2010
Видео: MP4, h264, yuv420p, 1280x720 (выпуск №4 - 960x720) [PAR 1:1 DAR 16:9], 25 tbr, 25k tbn, 50 tbc
Жанр: Документальный, телепередача, обучающее видео, OpenSource, Linux
Страна: Россия, Екатеринбург

Если у вас возникли проблемы с закачкой NixBurg - Живые новости о Linux и Open Source [Выпуски 01-08] (2010) WEBRip 720p, перейдите по ссылке - там вы найдете решение своей проблемы.

Категория: Телевизор

 

Скачать NixBurg - Живые новости о Linux и Open Source [Выпуски 01-08] (2010) WEBRip 720p бесплатно без регистрации

 

Информация
Посетители, находящиеся в группе Гости, не могут оставлять комментарии к данной публикации.
 
 
Скачать NixBurg - Живые новости о Linux и Open Source [Выпуски 01-08] (2010) WEBRip 720p бесплатно без регистрацииCopyright © 2019 .