Скачать Звездные войны: Эпизод 5 – Империя наносит ответный удар / Star Wars: Episode V - The Empire Strikes Back (1980) DVD5 бесплатно без регистрации







Скриншоты:
ЗалилВид субтитров: Вшитые отключаемые



Sonic Foundry Soft Encode. Русская дорожка перекодирована из DTS 5.1 теми же программами. Видео перекодировано вРежиссер: Джордж Лукас
AfterEffects). Сохранена, упрощена и русифицированаРабота с меню и реавторинг
Adobe Photoshop, AfterEffects - создание дизайна меню
Sonic Scenarist - сборка DVD
PgcEdit - программирование и настройка DVD
Дополнительная информация:Исходник видео, русской и английской дорожки -Язык субтитров: русские, английские
Програмы для разборки Blu-ray
EAC3TO - разборка блюрея

EAC3TO иBluRay CEE.
Английская звуковая дорожка перекодирована из DTS-HD с помощьюОписание фильма:
Борьба за Галактику обостряется в пятом эпизоде космической саги. Войска Императора начинают массированную атаку на повстанцев и их союзников. Хан Соло и принцесса Лейя укрываются в Заоблачном Городе, в котором их и захватывает Дарт Вейдер, в то время как Люк Скайуокер находится на таинственной планете джунглей Дагобар. Там Мастер — джедай Йода обучает молодого рыцаря навыкам обретения Силы. Люк даже не предполагает, как скоро ему придется воспользоваться знаниями старого Мастера: впереди битва с превосходящими силами Императора и смертельный поединок с Дартом Вейдером.

Дата выхода DVD релиза: 9 декабря 2010

Перевод: Дублированный
Качество видео: DVD5

только одна из трех оригинальных меню на эпизод. На экранах выбора эпизодов использованы материалы с изданияАудио 2: AC3 5.1, 48kHz, 448 Кбит/сек [английский]
DVDInfo:Title: Star Wars Episode V - The Empire Strikes Back (1980) BD-DVD5
Size: 4.35 Gb ( 4 561 922,00 KBytes ) - DVD-5
Enabled regions: 1, 2, 3, 4, 5, 6, 7, 8

VTS_01 :
Play Length: 02:02:08
Video: PAL 16:9 (720x576) VBR, Auto Letterboxed
Audio:
Russian (Dolby AC3, 6 ch)
English (Dolby AC3, 6 ch)
Subtitles:
Russian
English

* Menus Information *

VIDEO_TS Menu
Video:
PAL 16:9 (720x576) VBR
Auto Letterboxed
Audio:
Not specified (Dolby AC3, 2 ch)
Russian Language Unit :
Title Menu

VTS_01 Menu
Video:
PAL 16:9 (720x576) VBR
Auto Letterboxed
Audio:
Not specified (Dolby AC3, 2 ch)
Russian Language Unit :
Root Menu
Audio Menu
Chapter (PTT) Menu
MediaInfo:Общее
Полное имя : D:ФИЛЬМЫStar Wars Episode V - The Empire Strikes Back (1980) BD-DVD5VIDEO_TSVTS_01_1.VOB
Формат : MPEG-PS
Размер файла : 1024 Мбайт
Продолжительность : 26 м.
Режим общего битрейта : Переменный
Общий поток : 5358 Кбит/сек

Видео
Идентификатор : 224 (0xE0)
Формат : MPEG Video
Версия формата : Version 2
Профиль формата : Main@Main
Параметр BVOP формата : Да
Параметр матрицы формата : Выборочная
Параметр GOP формата : Variable
Продолжительность : 26 м.
Вид битрейта : Переменный
Битрейт : 4356 Кбит/сек
Максимальный битрейт : 8000 Кбит/сек
Ширина : 720 пикселей
Высота : 576 пикселей
Соотношение сторон : 16:9
Частота кадров : 25,000 кадров/сек
Стандарт вещания : PAL
Цветовое пространство : YUV
Субдискретизация насыщенности : 4:2:0
Битовая глубина : 8 бит
Тип развёртки : Чересстрочная
Порядок развёртки : Верхнее поле первое
Метод сжатия : С потерями
Бит/(Пиксели*Кадры) : 0.420
Размер потока : 832 Мбайт (81%)

Аудио #1
Идентификатор : 189 (0xBD)-128 (0x80)
Формат : AC-3
Формат/Информация : Audio Coding 3
Расширение режима : CM (complete main)
Параметр Endianness формата : Big
Режим смешивания : DVD-Video
Продолжительность : 26 м.
Вид битрейта : Постоянный
Битрейт : 448 Кбит/сек
Каналы : 6 каналов
Расположение каналов : Front: L C R, Side: L R, LFE
Частота : 48,0 КГц
Битовая глубина : 16 бит
Метод сжатия : С потерями
Размер потока : 85,6 Мбайт (8%)

Аудио #2
Идентификатор : 189 (0xBD)-129 (0x81)
Формат : AC-3
Формат/Информация : Audio Coding 3
Расширение режима : CM (complete main)
Параметр Endianness формата : Big
Режим смешивания : DVD-Video
Продолжительность : 26 м.
Вид битрейта : Постоянный
Битрейт : 448 Кбит/сек
Каналы : 6 каналов
Расположение каналов : Front: L C R, Side: L R, LFE
Частота : 48,0 КГц
Битовая глубина : 16 бит
Метод сжатия : С потерями
Размер потока : 85,6 Мбайт (8%)

Текст #1
Идентификатор : 189 (0xBD)-32 (0x20)
Формат : RLE
Формат/Информация : Run-length encoding
Режим смешивания : DVD-Video

Текст #2
Идентификатор : 189 (0xBD)-33 (0x21)
Формат : RLE
Формат/Информация : Run-length encoding
Режим смешивания : DVD-Video

Меню


Бриф по изготовлению DVD:Русское название: Звездные войны: Эпизод 5 – Империя наносит ответный удар
ProCoder 3. Меню сделано на основе оригинальных DVD (вДата мировой премьеры: 17 мая 1980
Аудио 1: AC3 5.1, 48kHz, 448 Кбит/сек [русский]
Жанр: Фантастика, Боевик, Приключения

Саша 1992 ОценкаНикто ещё не поставил оценку КатегорияЗарубежные фильмы Раздают0 Качают1 Сидер замечен07-05-2019 18:19:06 (1 месяц назад) Добавлен27-01-2013 13:20:41 (78 месяцев назад) Размер4.35 GB (4671408128 Bytes)Tycoon.
Скриншоты меню:

Год выпуска: 1980
Актеры: Марк Хэмилл, Харрисон Форд, Кэрри Фишер, Билли Ди Уильямс, Энтони Дэниелс, Дэвид Праус, Питер Мейхью, Кенни Бейкер, Фрэнк Оз, Алек Гиннесс и др.

Photoshop иРабота со звуком
EAC3TO - извлечение WAV из DTS-HD и DTS
Sonic Foundry Soft Encode - конвертация из формата WAV в AC3

Видео: MPEG-2, 720x576@1024x576 (PAL 16:9), ~4356 Кбит/сек
Видео
AviSynth - обработка видео
ProCoder 3 - конвертация видео

Продолжительность: 02:02:08
Оригинальное название: Star Wars: Episode V - The Empire Strikes Back

Если у вас возникли проблемы с закачкой Звездные войны: Эпизод 5 – Империя наносит ответный удар / Star Wars: Episode V - The Empire Strikes Back (1980) DVD5, перейдите по ссылке - там вы найдете решение своей проблемы.

Категория: Зарубежные фильмы

 

Скачать Звездные войны: Эпизод 5 – Империя наносит ответный удар / Star Wars: Episode V - The Empire Strikes Back (1980) DVD5 бесплатно без регистрации

 

Информация
Посетители, находящиеся в группе Гости, не могут оставлять комментарии к данной публикации.
 
 
Скачать Звездные войны: Эпизод 5 – Империя наносит ответный удар / Star Wars: Episode V - The Empire Strikes Back (1980) DVD5 бесплатно без регистрацииCopyright © 2019 .