Скачать Детей нет / Sin hijos (2015) HDTVRip 1080p от MediaClub | P бесплатно без регистрации






Информация о фильме
silverina64 ОценкаНикто ещё не поставил оценку КатегорияЗарубежные фильмы Раздают2 Качают0 Сидер замечен27-05-2019 5:19:11 (4 минуты назад) Добавлен04-11-2017 14:36:34 (19 месяцев назад) Размер5.36 GB (5755181020 Bytes)Режиссер: Ариэль Виноград
Качество: HDTVRip 1080p
Продолжительность: 01:36:39
Оригинальное название: Sin hijos
Silverok ЗалилСемпл

MIGeneral
Unique ID : 248678052946078997787572812634903406361 (0xBB15A69F4A4FDFB186CC50FF75D1E719)
Complete name : D:uTorrentDetei.net.2015.HDTVRip.1080p.MediaClub.mkv
Format : Matroska
Format version : Version 4 / Version 2
File size : 5.36 GiB
Duration : 1 h 36 min
Overall bit rate : 7 938 kb/s
Encoded date : UTC 2017-11-03 09:10:06 / UTC 2017-10-14T11:15:30Z
Writing application : mkvmerge v17.0.0 ('Be Ur Friend') 64-bit
Writing library : libebml v1.3.5 + libmatroska v1.4.8 / Lavf57.7.2

Video
ID : 1
Format : AVC
Format/Info : Advanced Video Codec
Format profile : High@L4.1
Format settings : CABAC / 5 Ref Frames
Format settings, CABAC : Yes
Format settings, RefFrames : 5 frames
Codec ID : V_MPEG4/ISO/AVC
Duration : 1 h 36 min
Bit rate : 7 680 kb/s
Width : 1 920 pixels
Height : 800 pixels
Display aspect ratio : 2.40:1
Frame rate mode : Constant
Frame rate : 25.000 FPS
Color space : YUV
Chroma subsampling : 4:2:0
Bit depth : 8 bits
Scan type : Progressive
Bits/(Pixel*Frame) : 0.200
Stream size : 5.08 GiB (95%)
Title : HDTVRip by Silverok
Writing library : x264 core 148 r2708 86b7198
Encoding settings : cabac=1 / ref=5 / deblock=1:-3:-3 / analyse=0x3:0x113 / me=umh / subme=10 / psy=1 / psy_rd=1.00:0.00 / mixed_ref=1 / me_range=24 / chroma_me=1 / trellis=2 / 8x8dct=1 / cqm=0 / deadzone=21,11 / fast_pskip=1 / chroma_qp_offset=-2 / threads=12 / lookahead_threads=1 / sliced_threads=0 / nr=0 / decimate=0 / interlaced=0 / bluray_compat=0 / constrained_intra=0 / bframes=14 / b_pyramid=2 / b_adapt=1 / b_bias=0 / direct=1 / weightb=1 / open_gop=0 / weightp=2 / keyint=250 / keyint_min=25 / scenecut=40 / intra_refresh=0 / rc_lookahead=40 / rc=2pass / mbtree=1 / bitrate=7680 / ratetol=1.0 / qcomp=0.60 / qpmin=0 / qpmax=69 / qpstep=4 / cplxblur=20.0 / qblur=0.5 / vbv_maxrate=62500 / vbv_bufsize=78125 / nal_hrd=none / filler=0 / ip_ratio=1.40 / aq=1:1.00
Default : Yes
Forced : No
Color range : Limited
Color primaries : BT.709
Transfer characteristics : BT.709
Matrix coefficients : BT.709
Statistics Tags Issue : mkvmerge v17.0.0 ('Be Ur Friend') 64-bit 2017-11-03 09:10:06 / mkvmerge v17.0.0 ('Be Ur Friend') 64-bit 2017-11-03 09:10:06 / UTC 2017-10-14T11:15:30Z
FromStats_BitRate : 7680360
FromStats_Duration : 01:36:39.920000000
FromStats_FrameCount : 144998
FromStats_StreamSize : 5568184603

Audio
ID : 2
Format : AC-3
Format/Info : Audio Coding 3
Codec ID : A_AC3
Duration : 1 h 36 min
Bit rate mode : Constant
Bit rate : 256 kb/s
Channel(s) : 2 channels
Channel positions : Front: L R
Sampling rate : 48.0 kHz
Frame rate : 31.250 FPS (1536 SPF)
Bit depth : 16 bits
Compression mode : Lossy
Delay relative to video : 80 ms
Stream size : 177 MiB (3%)
Language : Russian
Service kind : Complete Main
Default : Yes
Forced : No
Statistics Tags Issue : mkvmerge v17.0.0 ('Be Ur Friend') 64-bit 2017-11-03 09:10:06 / mkvmerge v17.0.0 ('Be Ur Friend') 64-bit 2017-11-03 09:10:06 / UTC 2017-10-14T11:15:30Z
FromStats_BitRate : 256000
FromStats_Duration : 01:36:39.872000000
FromStats_FrameCount : 181246
FromStats_StreamSize : 185595904
Скриншоты

Звук: Русский (AC3, 2 ch, 256 Кбит/с)
О фильме:
Мужчина средних лет по имени Габриэль после развода оставляет дочь Софию у себя. Он оказывается хорошим и любящим отцом, умудряясь работать и зарабатывать, и в то же время воспитывая дочь и уделяя ей должное количество времени. Многие отцы даже из «полных» семей не становятся такими друзьями и одновременно хорошими наставниками для дочери, каким стал для Софии Габриэль. Ради неё он отвергает даже саму мысль о знакомстве с новой женщиной, ведь ему откровенно некогда – да и неизвестно, как подружились бы будущая мачеха и его восьмилетняя дочь. Всё резко меняется в жизни главного героя, когда он встречает свою прежнюю любовь – Викторию. Виктория – красивая, эффектная женщина, которая стильно одевается и страстно отдаётся отношениям с Габриэлем, к которому питает горячие и взаимные чувства. Но выясняется, что женщина терпеть не может детей. Что делать, если отношения, которые только-только начали складываться, оказываются под угрозой? И Габриэль не придумывает ничего лучше, кроме как скрывать факт существования у него дочери. Но с каждый днём сближения Виктории с Габриэлем такой факт маскировать становится всё более проблематичным – и в один прекрасный день любимая дочь главного героя и его новая любовь встретятся.





Жанр: Мелодрама, комедия
Релиз от: |Студия: Instituto de la Cinematografía y de las Artes Audiovisuales (ICAA), Instituto Nacional de Cine y Artes Audiovisuales (INCAA), MyS Producción, Patagonik Film Group, Tornasol Films
Субтитры: Нет

Год выхода: 2015
Кодек: h.264
Видео: MPEG-4 AVC, 7680 Кбит/с, 1920x800, 25,000 кадр/с
Страна: Аргентина, Испания
Перевод: Профессиональный многоголосый

В ролях: Диего Перетти, Марибель Верду, Гуадалупе Манен, Горацио Фонтова, Мартин Пироянски, Марина Беллати, Пабло Раго, Гиллермо Аренго, Хорхелина Арусси, Эрика де Сауту Риестра

Название: Детей нет

Если у вас возникли проблемы с закачкой Детей нет / Sin hijos (2015) HDTVRip 1080p от MediaClub | P, перейдите по ссылке - там вы найдете решение своей проблемы.

Категория: Зарубежные фильмы

 

Скачать Детей нет / Sin hijos (2015) HDTVRip 1080p от MediaClub | P бесплатно без регистрации

 

Информация
Посетители, находящиеся в группе Гости, не могут оставлять комментарии к данной публикации.
 
 
Скачать Детей нет / Sin hijos (2015) HDTVRip 1080p от MediaClub | P бесплатно без регистрацииCopyright © 2019 .