Скачать Лабиринт сновидений / Manie-Manie: Meikyuu Monogatari (1987) DVDRip-AVC | P бесплатно без регистрации






Кодек: H.264
Перевод: Профессиональный (многоголосый, закадровый) MC Entertainment

В ролях: Ёсида Хидэко, Цукаяма Масанэ, Гинга Бандзё, Мидзусима Ю, Отакэ Хироси, Каюми Иэмаса

Видео: 688x480, 23.976 fps, 2848 kbps
Язык: Русский, Японский
Формат: MKV
О фильме:
«Нео-Токио» или «Лабиринт сновидений» в некоторых переводах - это сборник, состоящий из трех фантастических новелл. Если вы любите фантастику - не фэнтези, не метания в виртуальной реальности, не головокружительные приключения космических ковбоев, а качественную научную фантастику, которая заставляет решать глобальные проблемы человечества, как свои собственные, то не пропустите случайно завалявшийся на винде или диске файл с названием «Нео-Токио». Если когда-нибудь казалось, что, закрыв книгу, вы понимали, что нужно сделать будущее другим, и были точно уверены, что знаете – как, то этот фильм для вас. Хорошая фантастика – не только развлечение, она учит не чувствовать, но мыслить, это тоже бывает необходимо.


World Art | MAL

Жанр: фантастика, мистика, ужасы
Страна: Япония
Информация о фильме
Качество: DVDRip-AVC
Продолжительность: 00:50:02
Оригинальное название: Neo-Tokyo / Manie-Manie: Meikyuu Monogatari
Режиссер: Отомо Кацухиро, Ринтаро, Кавадзири Ёсиаки
Название: Лабиринт сновидений
Субтитры: русские (встроенные полный перевод, STR) - Mr.R-Magic АКА Андрей Синеок

Скриншоты
MediaInfoGeneral
Format : Matroska
Format version : Version 4 / Version 2
File size : 1.27 GiB
Duration : 50mn 2s
Overall bit rate : 3 627 Kbps
Encoded date : UTC 2016-02-27 17:25:46
Writing application : mkvmerge v8.3.0 ('Over the Horizon') 64bit
Writing library : libebml v1.3.1 + libmatroska v1.4.2
DURATION : 00:50:02.336000000
NUMBER_OF_FRAMES : 93823
NUMBER_OF_BYTES : 144112128
_STATISTICS_WRITING_APP : mkvmerge v8.3.0 ('Over the Horizon') 64bit
_STATISTICS_WRITING_DATE_UTC : 2016-02-27 17:25:46
_STATISTICS_TAGS : BPS DURATION NUMBER_OF_FRAMES NUMBER_OF_BYTES
Attachment : Yes / Yes / Yes / Yes / Yes

Video
ID : 1
Format : AVC
Format/Info : Advanced Video Codec
Format profile : High@L3.1
Format settings, CABAC : Yes
Format settings, ReFrames : 13 frames
Codec ID : V_MPEG4/ISO/AVC
Duration : 50mn 2s
Bit rate : 2 787 Kbps
Width : 688 pixels
Height : 480 pixels
Display aspect ratio : 1.722
Original display aspect ratio : 1.433
Frame rate mode : Constant
Frame rate : 23.976 fps
Color space : YUV
Chroma subsampling : 4:2:0
Bit depth : 8 bits
Scan type : Progressive
Bits/(Pixel*Frame) : 0.352
Stream size : 997 MiB (77%)
Writing library : x264 core 67 r1145M d2e1e1c
Encoding settings : cabac=1 / ref=13 / deblock=1:-2:-2 / analyse=0x3:0x133 / me=umh / subme=9 / psy_rd=1.3:0.0 / mixed_ref=1 / me_range=16 / chroma_me=1 / trellis=2 / 8x8dct=1 / cqm=0 / deadzone=21,11 / chroma_qp_offset=-2 / threads=3 / nr=0 / decimate=0 / mbaff=0 / bframes=3 / b_pyramid=1 / b_adapt=2 / b_bias=0 / direct=0 / wpredb=1 / keyint=250 / keyint_min=25 / scenecut=40 / rc=crf / crf=18.0 / qcomp=0.60 / qpmin=10 / qpmax=23 / qpstep=4 / ip_ratio=1.40 / pb_ratio=1.30 / aq=1:0.80
Language : English
Default : Yes
Forced : No
DURATION : 00:49:41.646000000
NUMBER_OF_FRAMES : 71488
NUMBER_OF_BYTES : 1061439103
_STATISTICS_WRITING_APP : mkvmerge v8.3.0 ('Over the Horizon') 64bit
_STATISTICS_WRITING_DATE_UTC : 2016-02-27 17:25:46
_STATISTICS_TAGS : BPS DURATION NUMBER_OF_FRAMES NUMBER_OF_BYTES

Audio #1
ID : 2
Format : AC-3
Format/Info : Audio Coding 3
Mode extension : CM (complete main)
Format settings, Endianness : Big
Codec ID : A_AC3
Duration : 50mn 2s
Bit rate mode : Constant
Bit rate : 384 Kbps
Channel(s) : 6 channels
Channel positions : Front: L C R, Side: L R, LFE
Sampling rate : 48.0 KHz
Bit depth : 16 bits
Compression mode : Lossy
Stream size : 137 MiB (11%)
Title : MC Entertainment
Language : Russian
Default : Yes
Forced : No

Audio #2
ID : 3
Format : AC-3
Format/Info : Audio Coding 3
Mode extension : CM (complete main)
Format settings, Endianness : Big
Codec ID : A_AC3
Duration : 50mn 2s
Bit rate mode : Constant
Bit rate : 384 Kbps
Channel(s) : 6 channels
Channel positions : Front: L C R, Side: L R, LFE
Sampling rate : 48.0 KHz
Bit depth : 16 bits
Compression mode : Lossy
Stream size : 137 MiB (11%)
Title : Original
Language : Japanese
Default : No
Forced : No

Text
ID : 4
Format : UTF-8
Codec ID : S_TEXT/UTF8
Codec ID/Info : UTF-8 Plain Text
Title : Полные субтитры
Language : Russian
Default : Yes
Forced : No
Оценка7 из 10 (1 голосов, самая низкая оценка - 7, самая высокая - 7) КатегорияАниме Раздают3 Качают0 Сидер замечен15-06-2019 6:19:11 (4 минуты назад) Добавлен28-02-2016 13:48:22 (40 месяцев назад) Размер1.27 GB (1361130038 Bytes)Год выхода: 1987
Звук: Аудио кодек: AC3
Аудио RUS: 48.0 kHz, AC3, 6 ch, 384 kbps
Аудио JAP: 48.0 kHz, AC3, 6 ch, 384 kbps
Художник: Исикава Ямако, Мукуо Такамура, Аоки Кацуси
Файл
Студия: Madhouse Studios

Если у вас возникли проблемы с закачкой Лабиринт сновидений / Manie-Manie: Meikyuu Monogatari (1987) DVDRip-AVC | P, перейдите по ссылке - там вы найдете решение своей проблемы.

Категория: Аниме

 

Скачать Лабиринт сновидений / Manie-Manie: Meikyuu Monogatari (1987) DVDRip-AVC | P бесплатно без регистрации

 

Информация
Посетители, находящиеся в группе Гости, не могут оставлять комментарии к данной публикации.
 
 
Скачать Лабиринт сновидений / Manie-Manie: Meikyuu Monogatari (1987) DVDRip-AVC | P бесплатно без регистрацииCopyright © 2019 .