Скачать Адреналин: Высокое напряжение / Crank: High Voltage (2009) BDRip 720p от DHT-Movies бесплатно без регистрации






Информация о фильме
Жанр: боевик, фэнтези, комедия, драма, криминал
Видео: 1280x696, 4200 Кбит/сек, 23,976 кадр/сек
Перевод: Дубляж


Source: ,святой лука Оценка3.5 из 10 (2 голосов, самая низкая оценка - 1, самая высокая - 6) КатегорияЗарубежные фильмы Раздают1 Качают0 Сидер замечен15-06-2019 4:19:11 (4 минуты назад) Добавлен05-08-2011 11:07:01 (96 месяцев назад) Размер3.32 GB (3561273390 Bytes)by святой лука



О фильме:
Он умер, но обещал вернуться! Не чудом, а благодаря современным медицинским технологиям Чев Челиос получает новое сердце и новый шанс отомстить своим врагам. Теперь для постоянной подзарядки ему требуется электрический разряд мощностью не меньше, чем у автомобильного аккумулятора.




Оригинальное название: Crank: High Voltage
Режиссер: Марк Невелдайн, Брайан Тейлор
Качество: BDRip 720p (Продолжительность: 95мин.
Звук: DTS, 755 Кбит/сек, 6 канала(ов), 48,0 КГц
Релиз от: Кодек: h.264
1080p BD-Remux)
Название: Адреналин 2: Высокое напряжение
Год выхода: 2009
Субтитры: UTF-8 (русские)


MIФормат : Matroska
Размер файла : 3,32 Гбайт
Продолжительность : 1 ч. 35 м.
Общий поток : 4954 Кбит/сек
Дата кодирования : UTC 2011-08-05 07:18:49
Программа кодирования : mkvmerge v4.9.1 ('Ich will') сборка от Jul 11 2011 23:53:15
Библиотека кодирования : libebml v1.2.1 + libmatroska v1.1.1

Видео
Идентификатор : 1
Формат : AVC
Формат/Информация : Advanced Video Codec
Профиль формата : High@L4.1
Параметр CABAC формата : Да
Параметр ReFrames формата : 9 кадры
Параметры GOP формата : M=1, N=14
Идентификатор кодека : V_MPEG4/ISO/AVC
Продолжительность : 1 ч. 35 м.
Битрейт : 4200 Кбит/сек
Ширина : 1280 пикс.
Высота : 696 пикс.
Соотношение сторон : 16:9
Частота кадров : 23,976 кадр/сек
Цветовое пространство : YUV
Подвыборка цветности : 4:2:0
Битовая глубина : 8 бит
Тип развёртки : Прогрессивная
Бит/(Пиксели*Кадры) : 0.197
Размер потока : 2,75 Гбайт (83%)
Библиотека кодирования : x264 core 115 r1937 aa21558
Настройки программы : cabac=1 / ref=9 / deblock=1:-1:-1 / analyse=0x3:0x133 / me=umh / subme=10 / psy=1 / psy_rd=1.00:0.10 / mixed_ref=1 / me_range=32 / chroma_me=1 / trellis=2 / 8x8dct=1 / cqm=0 / deadzone=21,11 / fast_pskip=0 / chroma_qp_offset=-5 / threads=3 / sliced_threads=0 / nr=0 / decimate=1 / interlaced=0 / bluray_compat=0 / constrained_intra=0 / bframes=9 / b_pyramid=2 / b_adapt=2 / b_bias=0 / direct=3 / weightb=1 / open_gop=0 / weightp=2 / keyint=240 / keyint_min=24 / scenecut=40 / intra_refresh=0 / rc_lookahead=60 / rc=2pass / mbtree=1 / bitrate=4200 / ratetol=1.0 / qcomp=0.60 / qpmin=0 / qpmax=69 / qpstep=4 / cplxblur=20.0 / qblur=0.5 / ip_ratio=1.40 / aq=1:1.00
Язык : English

Аудио
Идентификатор : 2
Формат : DTS
Формат/Информация : Digital Theater Systems
Идентификатор кодека : A_DTS
Продолжительность : 1 ч. 35 м.
Вид битрейта : Постоянный
Битрейт : 755 Кбит/сек
Канал(ы) : 6 канала(ов)
Расположение каналов : Front: L C R, Side: L R, LFE
Частота : 48,0 КГц
Битовая глубина : 24 бит
Метод сжатия : С потерями
Задержка видео : 9 мс.
Размер потока : 517 Мбайт (15%)

Текст
Идентификатор : 3
Формат : UTF-8
Идентификатор кодека : S_TEXT/UTF8
Идентификатор кодека/Информация : UTF-8 Plain Text


Скриншоты ЗалилСтрана: США
В ролях: Джейсон Стэтхэм, Эми Смарт, Клифтон Коллинз мл., Бай Лин, Дэвид Кэррадайн, Кори Хэйм, Эфрен Рамирез, Дуайт Йоакам, Гленн Хоуертон, Холли Вебер

Если у вас возникли проблемы с закачкой Адреналин: Высокое напряжение / Crank: High Voltage (2009) BDRip 720p от DHT-Movies, перейдите по ссылке - там вы найдете решение своей проблемы.

Категория: Зарубежные фильмы

 

Скачать Адреналин: Высокое напряжение / Crank: High Voltage (2009) BDRip 720p от DHT-Movies бесплатно без регистрации

 

Информация
Посетители, находящиеся в группе Гости, не могут оставлять комментарии к данной публикации.
 
 
Скачать Адреналин: Высокое напряжение / Crank: High Voltage (2009) BDRip 720p от DHT-Movies бесплатно без регистрацииCopyright © 2019 .