Скачать +100500 на Перец ТВ [Новый сезон] [Эфир от 18.10] (2014) DVB от Deadmauvlad бесплатно без регистрации





Информация о фильме
Видео: MPEG 2,В ролях: Максим Голополосов

Аудио кодек: MP2
сценарийМаксим Голополосов, Николай Михеев, Карен Арутюнов, ...
DJ_V.K_TV ОценкаНикто ещё не поставил оценку КатегорияЮмор Раздают0 Качают1 Сидер замечен04-03-2018 7:19:06 (16 месяцев назад) Добавлен18-10-2014 17:14:24 (57 месяцев назад) Размер887.91 MB (931043116 Bytes)768@720x576 (4:3), 25.000 fps, 4 578 Kbps (0.442 bit/pixel)
Релиз группа: Goldenshara / Deadmauvlad ЗалилАудио #1: AC-3, 48.0 KHz, 2 ch, 192 Kbps, CBR (Russian)
Формат файла: ts
Режиссер: Петр Сивак
Выпущено: Россия, Канал перец
название: +100500
Жанр: Юмор
Видео кодек: MPEG-2
Год: 2014
О фильме: В шоу «+100500» Максим Голополосов делает видеообзоры на смешные видеоролики, найденные в Интернете. Комический эффект достигается при помощи склейки фрагментов видеоклипа с комментариями ведущего. Для каждого выпуска подбирается четыре видеоролика. Исключение составили первые десять эпизодов, в которых было по три ролика, эпизоды 61 и 64, в которых было пять роликов, а также эпизоды с 94 по 102, в которых было только два ролика в связи с проведением съёмок в Лондоне и увеличением количества выпусков за неделю. Как правило, каждый эпизод именуется по названию, сюжету или ключевой фразе из последнего ролика (исключение составляет только «Очень новогодний эпизод»). Съёмки производятся на фоне леопардового покрывала (пользователи интернета зачастую называют его ковром), которым Максим раньше накрывал диван. Над проектом работает четыре человека



[Аудио #2: MP2, 48.0 KHz, 2 ch, 192 Kbps, CBR (Russian)

MI+100500.DVB.By.DeadmauvladTV.18.10.2014.ts
Формат : MPEG-TS
Размер файла : 888 Мбайт
Продолжительность : 23 м.
Режим общего битрейта : Переменный
Общий поток : 5198 Кбит/сек
Максимальный общий битрейт : 35,5 Мбит/сек

Видео
Идентификатор : 4113 (0x1011)
Идентификатор меню : 1 (0x1)
Формат : MPEG Video
Версия формата : Version 2
Профиль формата : Main@Main
Параметр BVOP формата : Да
Параметр матрицы формата : Выборочная
Параметр GOP формата : Variable
Format_Settings_PictureStructure : Frame
Идентификатор кодека : 2
Продолжительность : 23 м.
Вид битрейта : Переменный
Битрейт : 4578 Кбит/сек
Ширина : 720 пикселей
Высота : 576 пикселей
Соотношение сторон : 4:3
Частота кадров : 25,000 кадров/сек
Стандарт вещания : PAL
Цветовое пространство : YUV
Субдискретизация насыщенности : 4:2:0
Битовая глубина : 8 бит
Тип развёртки : Чересстрочная
Порядок развёртки : Верхнее поле первое
Метод сжатия : С потерями
Бит/(Пиксели*Кадры) : 0.442
Временной код первого кадра : 00:00:00:00
Оригинал временного кода : Group of pictures header
Размер потока : 778 Мбайт (88%)

Аудио #1
Идентификатор : 4352 (0x1100)
Идентификатор меню : 1 (0x1)
Формат : MPEG Audio
Версия формата : Version 1
Профиль формата : Layer 2
Идентификатор кодека : 4
Продолжительность : 23 м.
Вид битрейта : Постоянный
Битрейт : 192 Кбит/сек
Каналы : 2 канала
Частота : 48,0 КГц
Метод сжатия : С потерями
Размер потока : 32,8 Мбайт (4%)
Язык : Russian

Аудио #2
Идентификатор : 4353 (0x1101)
Идентификатор меню : 1 (0x1)
Формат : AC-3
Формат/Информация : Audio Coding 3
Расширение режима : CM (complete main)
Параметр Endianness формата : Big
Идентификатор кодека : 129
Продолжительность : 23 м.
Вид битрейта : Постоянный
Битрейт : 192 Кбит/сек
Каналы : 2 канала
Расположение каналов : Front: L R
Частота : 48,0 КГц
Битовая глубина : 16 бит
Метод сжатия : С потерями
Размер потока : 32,8 Мбайт (4%)
Язык : Russian




Скриншоты

Качество: DVB

Если у вас возникли проблемы с закачкой +100500 на Перец ТВ [Новый сезон] [Эфир от 18.10] (2014) DVB от Deadmauvlad, перейдите по ссылке - там вы найдете решение своей проблемы.

Категория: Юмор

 

Скачать +100500 на Перец ТВ [Новый сезон] [Эфир от 18.10] (2014) DVB от Deadmauvlad бесплатно без регистрации

 

Информация
Посетители, находящиеся в группе Гости, не могут оставлять комментарии к данной публикации.
 
 
Скачать +100500 на Перец ТВ [Новый сезон] [Эфир от 18.10] (2014) DVB от Deadmauvlad бесплатно без регистрацииCopyright © 2019 .