Скачать Ватиканские записи / The Vatican Tapes (2015) BDRip 720p | iTunes бесплатно без регистрации





Информация о фильме
Год выпуска: 2015
Tonik777 Оценка8 из 10 (4 голосов, самая низкая оценка - 5, самая высокая - 10) КатегорияЗарубежные фильмы Раздают4 Качают0 Сидер замечен14-06-2019 18:19:12 (17 минут назад) Добавлен15-01-2019 7:05:43 (5 месяцев назад) Размер4.86 GB (5213600257 Bytes)Продолжительность: 01:30:52

Видео: MPEG-4 AVC, 5764 Кбит/с, 1280x720, 23,976 fps
Аудио 2: Eng, DTS, 1510 kb/s (6 ch), 48 kHz
Оригинальная аудиодорожка: английский

Описание: Анжела Холмс жила обычной жизнью, пока внезапно не начала оказывать разрушительное воздействие на окружающих, причиняя людям серьезные, иногда смертельные травмы. Местный священник, отец Лозано, уверен в ее одержимости. Приглашенные для проведения сеанса экзорцизма кардиналы из Ватикана сталкиваются с древней сатанинской силой, большей, чем они могли себе представить.



В ролях: Кэтлин Робертсон, Майкл Пенья, Элисон Ломан, Джимон Хонсу, Дугрей Скотт, Майкл Паре, Джон Патрик Амедори, Оливия Тейлор Дадли, Темина Санни, Дэниэл Бернхард

Название: Ватиканские записи
Студия: H2F Entertainment, Lakeshore Entertainment, Lionsgate, Pantelion Films
Страна: США
Тип релиза: BDRip 720p
Перевод: Профессиональный (дублированный) iTunes
Жанр: ужасы, триллер
Формат субтитров: softsub (SRT)
MediaInfo
x264 [info]: frame I:1277 Avg QP:13.67 size:130363
x264 [info]: frame P:32509 Avg QP:16.11 size: 50417
x264 [info]: frame B:96938 Avg QP:18.14 size: 21830

Format : Matroska
Format version : Version 4 / Version 2
File size : 4.86 GiB
Duration : 1h 30mn
Overall bit rate : 7 650 Kbps
Movie name : Ватиканские записи. (Tonik)
Encoded date : UTC 2015-11-29 19:26:42
Writing application : mkvmerge v7.1.0 ('Good Love') 64bit built on Jul 27 2014 13:06:55
Writing library : libebml v1.3.0 + libmatroska v1.4.1
_STATISTICS_WRITING_APP : mkvmerge v7.1.0 ('Good Love') 64bit built on Jul 27 2014 13:06:55
_STATISTICS_WRITING_DATE_UTC : 2015-11-29 19:26:42
_STATISTICS_TAGS : BPS DURATION NUMBER_OF_FRAMES NUMBER_OF_BYTES
DURATION : 01:30:52.256000000
NUMBER_OF_FRAMES : 170383
NUMBER_OF_BYTES : 261708288

Video
ID : 1
Format : AVC
Format/Info : Advanced Video Codec
Format profile : High@L4.1
Format settings, CABAC : Yes
Format settings, ReFrames : 9 frames
Codec ID : V_MPEG4/ISO/AVC
Duration : 1h 30mn
Bit rate : 5 764 Kbps
Width : 1 280 pixels
Height : 720 pixels
Display aspect ratio : 16:9
Frame rate mode : Constant
Frame rate : 23.976 fps
Color space : YUV
Chroma subsampling : 4:2:0
Bit depth : 8 bits
Scan type : Progressive
Bits/(Pixel*Frame) : 0.261
Stream size : 3.56 GiB (73%)
Writing library : x264 core 142 r2431+42 c69a006 tMod [8-bit@4:2:0 X86_64]
Encoding settings : cabac=1 / ref=9 / deblock=1:0:0 / analyse=0x3:0x113 / me=umh / subme=10 / psy=1 / fade_compensate=0.00 / psy_rd=1.05:0.10 / mixed_ref=1 / me_range=32 / chroma_me=1 / trellis=2 / 8x8dct=1 / cqm=0 / deadzone=21,11 / fast_pskip=0 / chroma_qp_offset=-2 / threads=12 / lookahead_threads=1 / sliced_threads=0 / nr=0 / decimate=1 / interlaced=0 / bluray_compat=0 / constrained_intra=0 / fgo=0 / bframes=6 / b_pyramid=2 / b_adapt=2 / b_bias=0 / direct=3 / weightb=1 / open_gop=0 / weightp=2 / keyint=250 / keyint_min=23 / scenecut=40 / intra_refresh=0 / rc=2pass / mbtree=0 / bitrate=5764 / ratetol=1.0 / qcomp=0.70 / qpmin=0:0:0 / qpmax=69:69:69 / qpstep=4 / cplxblur=20.0 / qblur=0.5 / ip_ratio=1.40 / pb_ratio=1.30 / aq=2:1.00 / aq-sensitivity=10.00 / aq-factor=1.00:1.00:1.00 / aq2=0 / aq3=0
Language : English
Default : Yes
Forced : No
_STATISTICS_WRITING_APP : mkvmerge v7.1.0 ('Good Love') 64bit built on Jul 27 2014 13:06:55
_STATISTICS_WRITING_DATE_UTC : 2015-11-29 19:26:42
_STATISTICS_TAGS : BPS DURATION NUMBER_OF_FRAMES NUMBER_OF_BYTES
DURATION : 01:30:52.280000000
NUMBER_OF_FRAMES : 130724
NUMBER_OF_BYTES : 3921597807

Audio #1
ID : 2
Format : AC-3
Format/Info : Audio Coding 3
Mode extension : CM (complete main)
Format settings, Endianness : Big
Codec ID : A_AC3
Duration : 1h 30mn
Bit rate mode : Constant
Bit rate : 384 Kbps
Channel(s) : 2 channels
Channel positions : Front: L R
Sampling rate : 48.0 KHz
Bit depth : 16 bits
Compression mode : Lossy
Stream size : 250 MiB (5%)
Title : iTunes
Language : Russian
Default : Yes
Forced : No

Audio #2
ID : 3
Format : DTS
Format/Info : Digital Theater Systems
Mode : 16
Format settings, Endianness : Big
Codec ID : A_DTS
Duration : 1h 30mn
Bit rate mode : Constant
Bit rate : 1 509 Kbps
Channel(s) : 6 channels
Channel positions : Front: L C R, Side: L R, LFE
Sampling rate : 48.0 KHz
Bit depth : 24 bits
Compression mode : Lossy
Stream size : 981 MiB (20%)
Language : English
Default : No
Forced : No

Text
ID : 4
Format : UTF-8
Codec ID : S_TEXT/UTF8
Codec ID/Info : UTF-8 Plain Text
Language : English
Default : No
Forced : No



Скриншоты

ЗалилАудио: Rus, AC3, 384 kb/s (2 ch), 48 kHz
Контейнер: MKV

Режиссер: Марк Невелдайн / Mark Neveldine

Cубтитры: английские
Оригинальное название: The Vatican Tapes

Если у вас возникли проблемы с закачкой Ватиканские записи / The Vatican Tapes (2015) BDRip 720p | iTunes, перейдите по ссылке - там вы найдете решение своей проблемы.

Категория: Зарубежные фильмы

 

Скачать Ватиканские записи / The Vatican Tapes (2015) BDRip 720p | iTunes бесплатно без регистрации

 

Информация
Посетители, находящиеся в группе Гости, не могут оставлять комментарии к данной публикации.
 
 
Скачать Ватиканские записи / The Vatican Tapes (2015) BDRip 720p | iTunes бесплатно без регистрацииCopyright © 2019 .