Скачать В лесу / Into the Forest (2015) HDRip от Portablius | L бесплатно без регистрации






Информация о фильме
Год выхода: 2015
Название: В лесу
Семпл

Звук: 48 kHz, MPEG Layer 3, 2 ch, ~128.00 kbps avg

MediaInfoОбщее
Полное имя : Into.the.Forest.2015.HDRip.ot.Portablius.avi
Формат : AVI
Формат/Информация : Audio Video Interleave
Размер файла : 746 Мбайт
Продолжительность : 1 ч. 41 м.
Общий поток : 1026 Кбит/сек
Программа кодирования : VirtualDubMod 1.5.10.3 | www.virtualdub-fr.org || (build 2550/release)
Библиотека кодирования : VirtualDubMod build 2550/release

Видео
Идентификатор : 0
Формат : MPEG-4 Visual
Профиль формата : Advanced Simple@L5
Параметр BVOP формата : 1
Параметр QPel формата : Нет
Параметр GMC формата : Без точки перехода
Параметр матрицы формата : Выборочная
Идентификатор кодека : XVID
Идентификатор кодека/Подсказка : XviD
Продолжительность : 1 ч. 41 м.
Битрейт : 888 Кбит/сек
Ширина : 704 пикселя
Высота : 384 пикселя
Соотношение сторон : 1,85:1
Частота кадров : 23,976 (23976/1000) кадра/сек
Цветовое пространство : YUV
Субдискретизация насыщенности : 4:2:0
Битовая глубина : 8 бит
Тип развёртки : Прогрессивная
Метод сжатия : С потерями
Бит/(Пиксели*Кадры) : 0.137
Размер потока : 646 Мбайт (87%)
Библиотека кодирования : XviD 73

Аудио
Идентификатор : 1
Формат : MPEG Audio
Версия формата : Version 1
Профиль формата : Layer 3
Идентификатор кодека : 55
Идентификатор кодека/Подсказка : MP3
Продолжительность : 1 ч. 41 м.
Вид битрейта : Постоянный
Битрейт : 128 Кбит/сек
Каналы : 2 канала
Частота : 48,0 КГц
Метод сжатия : С потерями
Размер потока : 93,1 Мбайт (12%)
Выравнивание : Соединение по промежуткам
Продолжительность промежутка : 42 мс. (1,00 видеокадр)
Время предзагрузки промежутка : 504 мс.
Библиотека кодирования : LAME3.99r
Настройки программы : -m s -V 4 -q 2 -lowpass 17 -b 128


Скриншоты ЗалилКодек: XviD
Evgen Portable ОценкаНикто ещё не поставил оценку КатегорияЗарубежные фильмы Раздают0 Качают1 Сидер замечен10-06-2019 21:19:13 (4 дня назад) Добавлен26-09-2016 17:13:30 (33 месяца назад) Размер745.69 MB (781914112 Bytes)Субтитры: Нет

ПРИСУТСТВУЕТ РЕКЛАМА!

Студия: Bron Studios, Rhombus Media
Перевод: Любительский (многоголосый, закадровый) | Студия Пиратского Дубляжа
Качество: HDRip
Режиссер: Патриция Розема
Продолжительность: 01:41:39
Оригинальное название: Into the Forest
Видео: 704x384 (1.83:1), 23.976 fps, XviD build 73 ~888 kbps avg, 0.14 bit/pixel
В ролях: Эллен Пейдж, Эван Рэйчел Вуд, Макс Мингелла, Каллум Кит Ренни, Майкл Эклунд, Венди Крюсон, Ронин Кара, Оуэн Кара, Лорни Кардинал

О фильме: Недалёкое будущее. Сёстры Нэлл и Эва живут вместе с отцом в умном доме посреди леса. Жизнь людей очень сильно зависит от электричества, поэтому когда случается повсеместное отключение электроэнергии, жизнь человечества в корне меняется. Сначала семья едет в город за продуктами, но потом решает держаться подальше от людей. Им придётся научиться выживать без преимуществ цивилизации...



Жанр: фантастика, драма
Страна: Канада

Если у вас возникли проблемы с закачкой В лесу / Into the Forest (2015) HDRip от Portablius | L, перейдите по ссылке - там вы найдете решение своей проблемы.

Категория: Зарубежные фильмы

 

Скачать В лесу / Into the Forest (2015) HDRip от Portablius | L бесплатно без регистрации

 

Информация
Посетители, находящиеся в группе Гости, не могут оставлять комментарии к данной публикации.
 
 
Скачать В лесу / Into the Forest (2015) HDRip от Portablius | L бесплатно без регистрацииCopyright © 2019 .