Скачать Джон Уик 3 / John Wick: Chapter 3 - Parabellum (2019) HDRip 1080p | Трейлер бесплатно без регистрации




«No Shouting. No screaming. No shooting. No fear. No fire. No signs. Just one pencil»



Видео: H264, 1920x802 (2,40:1), 24,0 Мбит/сек
Аудио 1: MP3 2.0, 128 Кбит/сек [Русский - дублированный]
Саша 1992 Оценка10 из 10 (2 голосов, самая низкая оценка - 10, самая высокая - 10) КатегорияЗарубежные фильмы Раздают81 Качают3 Сидер замечен14-06-2019 21:19:13 (3 минуты назад) Добавлен01-02-2019 15:21:26 (4 месяца назад) Размер489.66 MB (513448409 Bytes)Дата мировой премьеры: 16 мая 2019
Продюсеры: Бэзил Иваник, Эрика Ли, Джон Р. Саундерс
Перевод: Дублированный
Производство: США / Lionsgate, Thunder Road
Продолжительность: 00:02:12
Жанр: Боевик, триллер, драма, криминал

Качество видео: HDRip 1080pОписание:
Суперкиллер Джон Уик после нарушения кодекса тайной гильдии ассасинов получает статус изгоя — экскомьюникадо. За его голову назначена цена в 14 миллионов долларов, и армия самых жестоких профессиональных убийц со всего мира открывает на него кровавую охоту.

Год выпуска: 2019
Аудио 2: PCM 5.1, 6912 Кбит/сек [Английский - оригинал]
MediaInfo:Общее
Уникальный идентификатор : 18390724555785711665089412162685521096 (0xDD5ECB9EE94D52F83D504AD2D9C4CC8)
Полное имя : V:TorrentsJohn Wick. Chapter 3 - Parabellum (2019) HDRip [1080p] Trailer.mkv
Формат : Matroska
Версия формата : Version 4 / Version 2
Размер файла : 490 Мбайт
Продолжительность : 2 м. 12 с.
Общий поток : 31,1 Мбит/сек
Дата кодирования : UTC 2019-01-31 16:58:55
Программа кодирования : mkvmerge v30.1.0 ('Forever And More') 64-bit
Библиотека кодирования : libebml v1.3.6 + libmatroska v1.4.9

Видео
Идентификатор : 1
Формат : AVC
Формат/Информация : Advanced Video Codec
Профиль формата : High@L4.1
Настройки формата : CABAC / 4 Ref Frames
Параметр CABAC формата : Да
Параметр RefFrames формата : 4 кадра
Идентификатор кодека : V_MPEG4/ISO/AVC
Продолжительность : 2 м. 12 с.
Битрейт : 24,0 Мбит/сек
Ширина : 1920 пикселей
Высота : 802 пикселя
Соотношение сторон : 2,40:1
Режим частоты кадров : Постоянный
Частота кадров : 23,976 (24000/1001) кадра/сек
Цветовое пространство : YUV
Субдискретизация насыщенности : 4:2:0
Битовая глубина : 8 бит
Тип развёртки : Прогрессивная
Бит/(Пиксели*Кадры) : 0.650
Размер потока : 379 Мбайт (77%)
Библиотека кодирования : x264 core 157 r2935 545de2f
Настройки программы : cabac=1 / ref=2 / deblock=1:0:0 / analyse=0x3:0x113 / me=hex / subme=6 / psy=1 / psy_rd=1.00:0.00 / mixed_ref=1 / me_range=16 / chroma_me=1 / trellis=1 / 8x8dct=1 / cqm=0 / deadzone=21,11 / fast_pskip=1 / chroma_qp_offset=-2 / threads=6 / lookahead_threads=1 / sliced_threads=0 / nr=0 / decimate=1 / interlaced=0 / bluray_compat=0 / constrained_intra=0 / bframes=3 / b_pyramid=2 / b_adapt=1 / b_bias=0 / direct=1 / weightb=1 / open_gop=0 / weightp=1 / keyint=240 / keyint_min=24 / scenecut=40 / intra_refresh=0 / rc_lookahead=30 / rc=2pass / mbtree=1 / bitrate=24000 / ratetol=1.0 / qcomp=0.60 / qpmin=0 / qpmax=69 / qpstep=4 / cplxblur=20.0 / qblur=0.5 / vbv_maxrate=62500 / vbv_bufsize=78125 / nal_hrd=none / filler=0 / ip_ratio=1.40 / aq=1:1.00
Default : Да
Forced : Нет
Цветовой диапазон : Limited
Основные цвета : BT.709
Характеристики трансфера : BT.709
Коэффициенты матрицы : BT.709

Аудио #1
Идентификатор : 2
Формат : MPEG Audio
Версия формата : Version 1
Профиль формата : Layer 3
Настройки формата : Joint stereo / MS Stereo
Режим : Joint stereo
Расширение режима : MS Stereo
Идентификатор кодека : A_MPEG/L3
Идентификатор кодека/Подсказка : MP3
Продолжительность : 2 м. 12 с.
Вид битрейта : Постоянный
Битрейт : 128 Кбит/сек
Каналы : 2 канала
Частота : 48,0 КГц
Частота кадров : 41,667 кадра/сек (1152 SPF)
Метод сжатия : С потерями
Задержка видео : -21 мс.
Размер потока : 2,02 Мбайт (0%)
Заголовок : Dub
Язык : Russian
Default : Да
Forced : Нет

Аудио #2
Идентификатор : 3
Формат : PCM
Идентификатор кодека : A_PCM/INT/LIT
Продолжительность : 2 м. 12 с.
Вид битрейта : Постоянный
Битрейт : 6912 Кбит/сек
Каналы : 6 каналов
Частота : 48,0 КГц
Частота кадров : 32,001 кадра/сек (1500 SPF)
Битовая глубина : 24 бит
Задержка видео : -21 мс.
Размер потока : 109 Мбайт (22%)
Язык : English
Default : Нет
Forced : Нет

Скриншоты: ЗалилСубтитры: Нет
Актеры: Киану Ривз, Холли Берри, Иэн МакШейн, Джейсон Манцукас, Джером Флинн, Робби Дераффеле, Анжелика Хьюстон, Робин Лорд Тейлор, Азия Диллон, Марк Дакаскос

Дата российской премьеры: 16 мая 2019, «Централ Партнершип»


Режиссер: Чад Стахелски

Если у вас возникли проблемы с закачкой Джон Уик 3 / John Wick: Chapter 3 - Parabellum (2019) HDRip 1080p | Трейлер, перейдите по ссылке - там вы найдете решение своей проблемы.

Категория: Зарубежные фильмы

 

Скачать Джон Уик 3 / John Wick: Chapter 3 - Parabellum (2019) HDRip 1080p | Трейлер бесплатно без регистрации

 

Информация
Посетители, находящиеся в группе Гости, не могут оставлять комментарии к данной публикации.
 
 
Скачать Джон Уик 3 / John Wick: Chapter 3 - Parabellum (2019) HDRip 1080p | Трейлер бесплатно без регистрацииCopyright © 2019 .