Скачать Девушка-демон / Демоница / Ban Yao Qing Cheng [01x01-14 из 20] (2016) WEBRip 720p, WEBRip 1080p | L2 бесплатно без регистрации






Информация о фильме
Субтитры: китайские (хардсаб)

Скриншоты Скриншоты MediaInfo 720pGeneral
Unique ID : 181198372641084925091211903124962342822 (0x885189844270663EA06499819ED8F7A6)
Complete name : Ban.yao.qing.cheng.S01E01.720p.WEBRip.mkv
Format : Matroska
Format version : Version 2
File size : 1.32 GiB
Duration : 43 min 58 s
Overall bit rate : 4 285 kb/s
Encoded date : UTC 2016-07-24 15:21:39
Writing application : mkvmerge v4.2.0 ('No Talking') сборка от Jul 28 2010 18:38:23
Writing library : libebml v1.0.0 + libmatroska v1.0.0

Video
ID : 1
Format : AVC
Format/Info : Advanced Video Codec
Format profile : Baseline@L3.1
Format settings, CABAC : No
Format settings, RefFrames : 1 frame
Muxing mode : Header stripping
Codec ID : V_MPEG4/ISO/AVC
Duration : 43 min 58 s
Bit rate : 3 880 kb/s
Width : 1 280 pixels
Height : 714 pixels
Display aspect ratio : 16:9
Frame rate mode : Constant
Frame rate : 25.000 FPS
Color space : YUV
Chroma subsampling : 4:2:0
Bit depth : 8 bits
Scan type : Progressive
Bits/(Pixel*Frame) : 0.170
Stream size : 1.19 GiB (91%)
Writing library : x264 core 142 r2389 956c8d8
Encoding settings : cabac=0 / ref=1 / deblock=0:0:0 / analyse=0:0 / me=dia / subme=0 / psy=1 / psy_rd=1.00:0.00 / mixed_ref=0 / me_range=16 / chroma_me=1 / trellis=0 / 8x8dct=0 / cqm=0 / deadzone=21,11 / fast_pskip=1 / chroma_qp_offset=0 / threads=3 / lookahead_threads=1 / sliced_threads=0 / nr=0 / decimate=1 / interlaced=0 / bluray_compat=0 / constrained_intra=0 / bframes=0 / weightp=0 / keyint=250 / keyint_min=25 / scenecut=0 / intra_refresh=0 / rc=crf / mbtree=0 / crf=23.0 / qcomp=0.60 / qpmin=0 / qpmax=69 / qpstep=4 / ip_ratio=1.40 / aq=0
Default : Yes
Forced : No

Audio
ID : 2
Format : MPEG Audio
Format version : Version 1
Format profile : Layer 3
Mode : Joint stereo
Muxing mode : Header stripping
Codec ID : A_MPEG/L3
Codec ID/Hint : MP3
Duration : 43 min 58 s
Bit rate mode : Constant
Bit rate : 320 kb/s
Channel(s) : 2 channels
Sampling rate : 48.0 kHz
Compression mode : Lossy
Stream size : 101 MiB (7%)
Default : Yes
Forced : No
MediaInfo 1080pGeneral
Unique ID : 187364123007521299429400273393026129407 (0x8CF5047AE80E4B5B9599B36E04D0DDFF)
Complete name : Ban.yao.qing.cheng.S01E05.1080p.WEBRip.mkv
Format : Matroska
Format version : Version 2
File size : 1.90 GiB
Duration : 45 min 6 s
Overall bit rate : 6 020 kb/s
Encoded date : UTC 2017-11-29 21:11:38
Writing application : mkvmerge v4.2.0 ('No Talking') сборка от Jul 28 2010 18:38:23
Writing library : libebml v1.0.0 + libmatroska v1.0.0

Video
ID : 1
Format : AVC
Format/Info : Advanced Video Codec
Format profile : Baseline@L4
Format settings, CABAC : No
Format settings, RefFrames : 1 frame
Muxing mode : Header stripping
Codec ID : V_MPEG4/ISO/AVC
Duration : 45 min 6 s
Bit rate : 5 581 kb/s
Width : 1 920 pixels
Height : 1 080 pixels
Display aspect ratio : 16:9
Frame rate mode : Constant
Frame rate : 25.000 FPS
Color space : YUV
Chroma subsampling : 4:2:0
Bit depth : 8 bits
Scan type : Progressive
Bits/(Pixel*Frame) : 0.108
Stream size : 1.76 GiB (93%)
Writing library : x264 core 142 r2389 956c8d8
Encoding settings : cabac=0 / ref=1 / deblock=0:0:0 / analyse=0:0 / me=dia / subme=0 / psy=1 / psy_rd=1.00:0.00 / mixed_ref=0 / me_range=16 / chroma_me=1 / trellis=0 / 8x8dct=0 / cqm=0 / deadzone=21,11 / fast_pskip=1 / chroma_qp_offset=0 / threads=6 / lookahead_threads=1 / sliced_threads=0 / nr=0 / decimate=1 / interlaced=0 / bluray_compat=0 / constrained_intra=0 / bframes=0 / weightp=0 / keyint=250 / keyint_min=25 / scenecut=0 / intra_refresh=0 / rc=crf / mbtree=0 / crf=23.0 / qcomp=0.60 / qpmin=0 / qpmax=69 / qpstep=4 / ip_ratio=1.40 / aq=0
Default : Yes
Forced : No

Audio
ID : 2
Format : MPEG Audio
Format version : Version 1
Format profile : Layer 3
Mode : Joint stereo
Muxing mode : Header stripping
Codec ID : A_MPEG/L3
Codec ID/Hint : MP3
Duration : 45 min 6 s
Bit rate mode : Constant
Bit rate : 320 kb/s
Channel(s) : 2 channels
Sampling rate : 48.0 kHz
Compression mode : Lossy
Stream size : 103 MiB (5%)
Default : Yes
Forced : No


Субтитры: китайские (хардсаб)

Файл 1080p
Продолжительность: ~ 45 мин. серия
В ролях: Ли И Тун, Эди Ань, Сюй Хай Цяо, Дзиро Ван, Дай Ян Тянь, Хуан Цзин Юй

Режиссер: N/A
О фильме:
В 1900 - 1901 гг. Альянс восьми держав (Германия, Япония, Россия, Англия, Америка, Франция, Австрия и Италия) объединились и вторглись в Китай. Во время одного из нападений Ни Жу Фэн (Ван Мао Лэй) вместе со своей семьей должен бежать из города. Когда некуда больше идти и на кону стоит жизнь, его жена Ин Де (Эди Ан) оставляет Жу Фэна вместе с дочерьми и лицом к лицу встречается с врагом. На спине хрупкой женщины вырастают крылья, и она становится демоном. Пытаясь защитить семью, Ин Де получает ранение и погибает. Однако ее демоническая форма была замечена и сфотографирована одним человеком. Спустя пятнадцать лет старшая дочь Жу Фэна, Не Цин Чэн (Ли И Тун), знакомится с богатым молодым человеком по имени Мин Ся (Чжан Чжэ Хань), и они влюбляются друг в друга. Однако есть кое-что, о чем они даже не подозревают...

Качество: WEBRip 720p
Жанр: фэнтези, мелодрама, исторический
Качество: WEBRip 1080p
Релиз от: ЗалилОригинальное название: Ban yao qing cheng
Звук: mp3, 48.0 kHz, 2ch, 320 kb/s
Название: Девушка-демон / Демоница
Страна: Китай
Год выхода: 2016
Кодек: V_MPEG4/ISO/AVC
Звук: mp3, 48.0 kHz, 2ch, 320 kb/s
Кодек: V_MPEG4/ISO/AVC
Видео: 1920x1080 (16:9), 25.000 FPS, 5581 kb/s
A.Berezovskiy ОценкаНикто ещё не поставил оценку КатегорияЗарубежные сериалы Раздают1 Качают2 Сидер замечен14-06-2019 23:19:12 (4 минуты назад) Добавлен01-04-2018 7:31:59 (15 месяцев назад) Размер25.36 GB (27225768254 Bytes)Примечание: добавлена четырнадцатая серия серия.



Видео: 1280x714, 25.000 FPS, 3880 kb/s
Перевод: Любительский, двухголосый, закадровый (РГ "XDUB DORAMA" & "Колобок", перевод на русский: FSG "Aeterna temple", закадровый текст читали: DATFEEL & Izanami до третьей сериии, далее - Den904 & Izanami, тайминг и работа со звуком: Izanami)

Файл 720p

Если у вас возникли проблемы с закачкой Девушка-демон / Демоница / Ban Yao Qing Cheng [01x01-14 из 20] (2016) WEBRip 720p, WEBRip 1080p | L2, перейдите по ссылке - там вы найдете решение своей проблемы.

Категория: Зарубежные сериалы

 

Скачать Девушка-демон / Демоница / Ban Yao Qing Cheng [01x01-14 из 20] (2016) WEBRip 720p, WEBRip 1080p | L2 бесплатно без регистрации

 

Информация
Посетители, находящиеся в группе Гости, не могут оставлять комментарии к данной публикации.
 
 
Скачать Девушка-демон / Демоница / Ban Yao Qing Cheng [01x01-14 из 20] (2016) WEBRip 720p, WEBRip 1080p | L2 бесплатно без регистрацииCopyright © 2019 .