Скачать Всем нужна Кэт 2 / Cat Run 2 (2014) BDRip 720p | D бесплатно без регистрации






Информация о фильме
Субтитры: English





MI
Format : Matroska
Format version : Version 2
File size : 5.31 GiB
Duration : 1h 36mn
Overall bit rate : 7 910 Kbps
Encoded date : UTC 2015-05-12 11:43:30
Writing application : mkvmerge v7.8.0 ('River Man') 64bit built on Mar 27 2015 16:31:37
Writing library : libebml v1.3.1 + libmatroska v1.4.2
_STATISTICS_WRITING_APP : mkvmerge v7.8.0 ('River Man') 64bit built on Mar 27 2015 16:31:37
_STATISTICS_WRITING_DATE_UTC : 2015-05-12 11:43:30
_STATISTICS_TAGS : BPS DURATION NUMBER_OF_FRAMES NUMBER_OF_BYTES
DURATION : 01:36:11.616000000
NUMBER_OF_FRAMES : 180363
NUMBER_OF_BYTES : 277037568

Video
ID : 1
Format : AVC
Format/Info : Advanced Video Codec
Format profile : High@L4.1
Format settings, CABAC : Yes
Format settings, ReFrames : 9 frames
Codec ID : V_MPEG4/ISO/AVC
Duration : 1h 36mn
Bit rate : 6 000 Kbps
Width : 1 280 pixels
Height : 720 pixels
Display aspect ratio : 16:9
Frame rate : 23.976 fps
Color space : YUV
Chroma subsampling : 4:2:0
Bit depth : 8 bits
Scan type : Progressive
Bits/(Pixel*Frame) : 0.272
Stream size : 3.94 GiB (74%)
Writing library : x264 core 142 r2431+42 c69a006 tMod [8-bit@all X86_64]
Encoding settings : cabac=1 / ref=9 / deblock=1:-3:-3 / analyse=0x3:0x113 / me=umh / subme=11 / psy=1 / fade_compensate=0.00 / psy_rd=1.00:0.10 / mixed_ref=1 / me_range=48 / chroma_me=1 / trellis=2 / 8x8dct=1 / cqm=0 / deadzone=21,11 / fast_pskip=0 / chroma_qp_offset=-3 / threads=36 / lookahead_threads=3 / sliced_threads=0 / nr=0 / decimate=0 / interlaced=0 / bluray_compat=0 / constrained_intra=0 / fgo=0 / bframes=8 / b_pyramid=2 / b_adapt=2 / b_bias=0 / direct=3 / weightb=1 / open_gop=0 / weightp=2 / keyint=360 / keyint_min=2 / scenecut=40 / intra_refresh=0 / rc_lookahead=0 / rc=2pass / mbtree=0 / bitrate=6000 / ratetol=1.0 / qcomp=0.70 / qpmin=0:0:0 / qpmax=69:69:69 / qpstep=4 / cplxblur=20.0 / qblur=0.5 / vbv_maxrate=50000 / vbv_bufsize=30000 / nal_hrd=none / filler=0 / ip_ratio=1.23 / pb_ratio=1.15 / aq=1:0.80 / aq-sensitivity=10.00 / aq-factor=1.00:1.00:1.00 / aq2=0 / aq3=0
Language : English
Default : Yes
Forced : No
_STATISTICS_WRITING_APP : mkvmerge v7.8.0 ('River Man') 64bit built on Mar 27 2015 16:31:37
_STATISTICS_WRITING_DATE_UTC : 2015-05-12 11:43:30
_STATISTICS_TAGS : BPS DURATION NUMBER_OF_FRAMES NUMBER_OF_BYTES
DURATION : 01:36:11.599000000
NUMBER_OF_FRAMES : 138380
NUMBER_OF_BYTES : 4328605302

Audio #1
ID : 2
Format : AC-3
Format/Info : Audio Coding 3
Mode extension : CM (complete main)
Format settings, Endianness : Big
Codec ID : A_AC3
Duration : 1h 36mn
Bit rate mode : Constant
Bit rate : 384 Kbps
Channel(s) : 6 channels
Channel positions : Front: L C R, Side: L R, LFE
Sampling rate : 48.0 KHz
Bit depth : 16 bits
Compression mode : Lossy
Stream size : 264 MiB (5%)
Default : Yes
Forced : Yes

Audio #2
ID : 3
Format : DTS
Format/Info : Digital Theater Systems
Codec ID : A_DTS
Duration : 1h 36mn
Bit rate mode : Constant
Bit rate : 1 510 Kbps
Channel(s) : 6 channels
Channel positions : Front: L C R, Side: L R, LFE
Sampling rate : 48.0 KHz
Bit depth : 24 bits
Compression mode : Lossy
Stream size : 1.01 GiB (19%)
Language : English
Default : No
Forced : No

Text
ID : 4
Format : PGS
Muxing mode : zlib
Codec ID : S_HDMV/PGS
Codec ID/Info : The same subtitle format used on BDs/HD-DVDs
Language : English
Default : No
Forced : NoСкриншоты Оценка6 из 10 (2 голосов, самая низкая оценка - 4, самая высокая - 8) КатегорияЗарубежные фильмы Раздают0 Качают1 Сидер замечен17-05-2018 19:19:06 (13 месяца назад) Добавлен13-05-2015 16:00:22 (50 месяцев назад) Размер5.31 GB (5706862689 Bytes)Качество: BDRip 720p
В ролях: Скотт Мехловиц, Альфонсо МакОли, Винтер Эйв Золи, Kamille Leai, Ванесса Бренч, Мария Роджерс, Лоуренс П. Берон, Томас Та Хайд III, Дэвид Мальдонадо, Леонардо Нам

Продолжительность: 01:36:11
Формат: MKV
О фильме: Когда несколько высокопоставленных чиновников убиты на их собственной военной базе, два детектива обнаружили сверхсекретный эксперимент, который ставит под угрозу их жизнь и безопасность страны. Энтони и Джулиан - детективы-дебютанты решили совершить поездку в Новый Орлеан...



Видео: 6000 kb/s, 1280x720
Озвучивание: Дублированное

Выпущено: США / Lleuju Productions
Оригинальное название: Cat Run 2
Аудио: Russian: AC3, 384 kb/s (6 ch) / English: DTS, 1510 kb/s (6 ch)
Название: Всем нужна Кэт 2
Режиссер: Джон Стокуэлл
Жанр: боевик
Год выхода: 2014

Если у вас возникли проблемы с закачкой Всем нужна Кэт 2 / Cat Run 2 (2014) BDRip 720p | D, перейдите по ссылке - там вы найдете решение своей проблемы.

Категория: Зарубежные фильмы

 

Скачать Всем нужна Кэт 2 / Cat Run 2 (2014) BDRip 720p | D бесплатно без регистрации

 

Информация
Посетители, находящиеся в группе Гости, не могут оставлять комментарии к данной публикации.
 
 
Скачать Всем нужна Кэт 2 / Cat Run 2 (2014) BDRip 720p | D бесплатно без регистрацииCopyright © 2019 .