Скачать Путешествия Гулливера / Gulliver's Travels (1996) DVDRip | P бесплатно без регистрации






Информация о фильме
О фильме: Он был великаном в Стране Лилипутов и лилипутом в Стране Великанов. Он в одиночку сражался с вражеским флотом и гигантскими осами. Он побывал на Летающем острове ученых и в Стране Говорящих Лошадей. Он разговаривал с духами мертвых и едва не обрел бессмертие. И единственным человеком, поверившим во все это, был его сын...



Режиссёр: Чарльз Старридж / Charles Sturridge
Оригинальное название: Gulliver's Travels
CurHaJI Оценка9.3 из 10 (4 голосов, самая низкая оценка - 8, самая высокая - 10) КатегорияЗарубежные фильмы Раздают11 Качают2 Сидер замечен14-06-2019 20:19:13 (4 минуты назад) Добавлен15-11-2017 21:19:09 (19 месяцев назад) Размер2.19 GB (2346166670 Bytes)Название: Путешествия Гулливера
Продолжительность: 02:59:20
Релиз от: ЗалилЖанр: Фэнтези, приключения, семейный
Формат: avi
Качество: DVDRip (DVD9)
Год выхода: 1996
Видео: XviD, 688х512, 25fps, 1540kbps
Перевод: Профессиональный (многоголосый, закадровый)

Студия: Channel 4 Television Corporation, Hallmark Entertainment, Jim Henson Productions
В ролях: Тед Дэнсон, Мэри Стинберген, Джеймс Фокс, Нед Битти, Эдвард Фокс, Роберт Харди, Николас Линдхерст, Фиби Николлс, Керин Парсонс, Эдвард Петербридж

Страна: США, Великобритания
Аудио: MPEG Layer 3, 2ch, 48000Hz, 192kbps



MediaInfo
Общее
Полное имя : Gulliver.1996.P.DVDRip.2100.CurHaJI.avi
Формат : AVI
Формат/Информация : Audio Video Interleave
Профиль формата : OpenDML
Размер файла : 2,19 Гбайт
Продолжительность : 2 ч. 59 м.
Общий поток : 1744 Кбит/сек
Название фильма : Gulliver.1996.P.DVDRip.2100.CurHaJI
Программа кодирования : VirtualDubMod 1.5.10.3 | www.virtualdub-fr.org || (build 2550/release)
Библиотека кодирования : VirtualDub build 35491/release

Видео
Идентификатор : 0
Формат : MPEG-4 Visual
Профиль формата : Advanced Simple@L5
Параметр BVOP формата : 1
Параметр QPel формата : Нет
Параметр GMC формата : Без точки перехода
Параметр матрицы формата : Выборочная
Идентификатор кодека : XVID
Идентификатор кодека/Подсказка : XviD
Продолжительность : 2 ч. 59 м.
Битрейт : 1540 Кбит/сек
Ширина : 688 пикселей
Высота : 512 пикселей
Соотношение сторон : 4:3
Частота кадров : 25,000 кадров/сек
Цветовое пространство : YUV
Субдискретизация насыщенности : 4:2:0
Битовая глубина : 8 бит
Тип развёртки : Прогрессивная
Метод сжатия : С потерями
Бит/(Пиксели*Кадры) : 0.175
Размер потока : 1,93 Гбайт (88%)
Библиотека кодирования : XviD 73

Аудио
Идентификатор : 1
Формат : MPEG Audio
Версия формата : Version 1
Профиль формата : Layer 3
Идентификатор кодека : 55
Идентификатор кодека/Подсказка : MP3
Продолжительность : 2 ч. 59 м.
Вид битрейта : Постоянный
Битрейт : 192 Кбит/сек
Каналы : 2 канала
Частота : 48,0 КГц
Метод сжатия : С потерями
Размер потока : 246 Мбайт (11%)
Выравнивание : Соединение по промежуткам
Продолжительность промежутка : 40 мс. (1,00 видеокадр)
Время предзагрузки промежутка : 504 мс.
Библиотека кодирования : LAME3.99r
Настройки программы : -m s -V 4 -q 2 -lowpass 18.6 -b 192
Скриншоты



Если у вас возникли проблемы с закачкой Путешествия Гулливера / Gulliver's Travels (1996) DVDRip | P, перейдите по ссылке - там вы найдете решение своей проблемы.

Категория: Зарубежные фильмы

 

Скачать Путешествия Гулливера / Gulliver's Travels (1996) DVDRip | P бесплатно без регистрации

 

Информация
Посетители, находящиеся в группе Гости, не могут оставлять комментарии к данной публикации.
 
 
Скачать Путешествия Гулливера / Gulliver's Travels (1996) DVDRip | P бесплатно без регистрацииCopyright © 2019 .